西西论坛

 找回密码
 立即注册
搜索

[BD-4K] 困在时间里的父亲/父亲 The.Father.2020.2160p.AMZN.WEB-DL.x265.10bit....

[复制链接]
电影首发 发表于 2021-3-27 09:47:10 | 显示全部楼层 |阅读模式
-->
帖子完整标题:困在时间里的父亲/父亲 The.Father.2020.2160p.AMZN.WEB-DL.x265.10bit.HDR10Plus.DDP5.1-CM 10.29GB



[/url]

◎译  名 困在时间里的父亲/父亲/爸爸可否不要老(港)/老父
◎片  名 The Father
◎年  代 2020
◎产  地 英国,法国
◎类  别 剧情
◎语  言 英语
◎上映日期 2020-01-27(圣丹斯电影节) / 2021-02-26(美国) / 2021-03-26(美国网络)
◎IMDb评分  8.2/10 from 3468 users
◎片  长 97分钟
◎导  演 佛罗莱恩·泽勒 Florian Zeller
◎编  剧 克里斯托弗·汉普顿 Christopher Hampton / 佛罗莱恩·泽勒 Florian Zeller
◎主  演 奥利维娅·科尔曼 Olivia Colman
       安东尼·霍普金斯 Anthony Hopkins
       马克·加蒂斯 Mark Gatiss
       奥莉维亚·威廉姆斯 Olivia Williams
       伊莫琴·普茨 Imogen Poots
       卢夫斯·塞维尔 Rufus Sewell
       阿耶莎·达尔克 Ayesha Dharker
       艾薇·维 Evie Wray

◎标  签 安东尼·霍普金斯 | 剧情 | 英国 | 2020 | 英国电影 | 奥利维娅·科尔曼 | 改编 | 马克·加蒂斯

◎简  介

  安东尼·霍普金斯、奥利维娅·科尔曼将出演,根据法国小说家兼剧作家佛罗莱恩·泽勒的舞台剧《父亲》改编的新片。霍普金斯饰演的角色是一个淘气而又高度独立的男人,随着年龄的增长,他拒绝了女儿安妮(科尔曼饰)的一切帮助。然而,在安妮决定和她的伴侣搬去巴黎后,这种帮助变得至关重要。父亲面对不断变化的环境时,他开始怀疑他所爱的人,他自己的思想,甚至他的现实结构。
  
  泽勒将执导本片,并与奥斯卡获奖编剧克里斯托弗·汉普顿([危险方法])合写剧本。该片将于本月在英国开拍。影片的制片人有大卫·帕菲特([莎翁情史])、让-路易·利维([唇语惊魂])、菲利普·卡卡松([时尚先锋香奈儿])等。
  
  这部由泽勒编剧和执导的舞台剧于2012年首次在巴黎上映,赢得了莫里哀奖的最佳舞台剧奖。之后该剧在纽约百老汇和伦敦西区上演,又同时拿下了托尼奖和奥利维尔奖的最佳男演员奖。

◎获奖情况

  第93届奥斯卡金像奖 ?(2021)
  最佳影片(提名) 大卫·帕尔菲特?/?菲利普·卡尔卡松?/?让-路易·利威
  最佳男主角(提名) 安东尼·霍普金斯
  最佳女配角(提名) 奥利维娅·科尔曼
  最佳改编剧本(提名) 克里斯托弗·汉普顿?/?佛罗莱恩·泽勒
  最佳剪辑(提名) 欧格斯·兰姆普里诺斯
  最佳艺术指导(提名) 凯西·费瑟斯通?/?彼得·弗兰西斯
  
  第78届金球奖 ?(2021)
  电影类最佳剧情片(提名)
  电影类剧情片最佳男主角(提名) 安东尼·霍普金斯
  电影类最佳女配角(提名) 奥利维娅·科尔曼
  电影类最佳编剧(提名) 克里斯托弗·汉普顿?/?佛罗莱恩·泽勒
  
  第74届英国电影学院奖 ?(2021)
  电影奖最佳影片(提名)
  电影奖最佳英国影片(提名) 佛罗莱恩·泽勒
  电影奖最佳男主角(提名) 安东尼·霍普金斯
  电影奖最佳改编剧本(提名)
  电影奖最佳剪辑(提名)
  电影奖最佳艺术指导(提名)
  
  第35届西班牙戈雅奖 ?(2021)
  最佳欧洲电影
  
  第68届圣塞巴斯蒂安国际电影节 ?(2020)
  观众选择奖 佛罗莱恩·泽勒
  
  第27届美国演员工会奖 ?(2021)
  电影奖最佳男主角(提名) 安东尼·霍普金斯
  电影奖最佳女配角(提名) 奥利维娅·科尔曼
  
  第26届美国评论家选择电影奖 ?(2021)
  最佳男主角(提名) 安东尼·霍普金斯
  最佳女配角(提名) 奥利维娅·科尔曼
  最佳改编剧本(提名) 克里斯托弗·汉普顿?/?佛罗莱恩·泽勒
  最佳剪辑(提名) 欧格斯·兰姆普里诺斯
  
  第23届英国独立电影奖 ?(2020)
  最佳英国独立电影(提名)
  最佳导演(提名) 佛罗莱恩·泽勒
  最佳编剧 克里斯托弗·汉普顿?/?佛罗莱恩·泽勒
  最佳男主角 安东尼·霍普金斯
  最佳剪辑
  最佳艺术指导(提名)
  
  第25届金卫星奖 ?(2021)
  电影部门最佳剧情片(提名)
  电影部门最佳导演(提名) 佛罗莱恩·泽勒
  电影部门剧情片最佳男主角(提名) 安东尼·霍普金斯
  电影部门最佳女配角(提名) 奥利维娅·科尔曼
  电影部门最佳改编剧本(提名) 克里斯托弗·汉普顿?/?佛罗莱恩·泽勒
  电影部门最佳剪辑(提名) 欧格斯·兰姆普里诺斯
  
  第41届伦敦影评人协会奖 ?(2021)
  年度英国/爱尔兰电影(提名)
  年度男主角(提名) 安东尼·霍普金斯
  年度英国/爱尔兰男演员(提名) 安东尼·霍普金斯
  
  第41届波士顿影评人协会奖 ?(2020)
  最佳男主角 安东尼·霍普金斯
  最佳处女作 佛罗莱恩·泽勒
  
  第46届洛杉矶影评人协会奖 ?(2020)
  最佳剪辑 欧格斯·兰姆普里诺斯
  
  第33届芝加哥影评人协会奖 ?(2020)
  最佳男主角(提名) 安东尼·霍普金斯
  最佳改编剧本(提名) 克里斯托弗·汉普顿?/?佛罗莱恩·泽勒
  
  第5届亚特兰大影评人协会奖 ?(2020)
  十佳影片
  
  第24届美国在线影评人协会奖 ?(2021)
  最佳男主角(提名) 安东尼·霍普金斯
  最佳女配角(提名) 奥利维娅·科尔曼
Video
ID                                       : 1
Format                                   : HEVC
Format/Info                              : High Efficiency Video Coding
Format profile                           : Main @Main
HDR format                               : SMPTE ST 2094 App 4, Version 1, HDR10+ Profile B compatible
Codec ID                                 : V_MPEGH/ISO/HEVC
Duration                                 : 1 h 36 min
Bit rate                                 : 14.6 Mb/s
Width                                    : 3 840 pixels
Height                                   : 1 600 pixels
Display aspect ratio                     : 2.40:1
Frame rate mode                          : Constant
Frame rate                               : 23.976 (24000/1001/189150) FPS
Color space                              : YUV
Chroma subsampling                       : 4:2:0
Bit depth                                : 10 bits
Bits/(Pixel*Frame)                       : 0.099
Stream size                              : 9.86 GiB (96%)
Default                                  : Yes
Forced                                   : No
Color range                              : Limited
Color primaries                          : BT.2020
Transfer characteristics                 : PQ
Matrix coefficients                      : BT.2020 non-constant
Mastering display color primaries        : Display P3
Mastering display luminance              : min: 0.0050 cd/m2, max: 4000 cd/m2
Maximum Content Light Level              : 474 cd/m2
Maximum Frame-Average Light Level        : 44 cd/m2

Audio
ID                                       : 2
Format                                   : E-AC-3
Format/Info                              : Enhanced AC-3
Commercial name                          : Dolby Digital Plus
Codec ID                                 : A_EAC3
Duration                                 : 1 h 36 min
Bit rate mode                            : Constant
Bit rate                                 : 640 kb/s
Channel(s)                               : 6 channels
Channel layout                           : L R C LFE Ls Rs
Sampling rate                            : 48.0 kHz
Frame rate                               : 31.250 FPS (1536 SPF)
Compression mode                         : Lossy
Stream size                              : 444 MiB (4%)
Title                                    : English
Language                                 : English
Service kind                             : Complete Main
Default                                  : No
Forced                                   : No

Text #1
ID                                       : 3
Format                                   : UTF-8
Codec ID                                 : S_TEXT/UTF8
Codec ID/Info                            : UTF-8 Plain Text
Duration                                 : 1 h 32 min
Bit rate                                 : 58 b/s
Count of elements                        : 1467
Stream size                              : 39.7 KiB (0%)
Title                                    : English [SDH]
Language                                 : English
Default                                  : No
Forced                                   : No

Text #2
ID                                       : 4
Format                                   : UTF-8
Codec ID                                 : S_TEXT/UTF8
Codec ID/Info                            : UTF-8 Plain Text
Duration                                 : 1 h 29 min
Bit rate                                 : 56 b/s
Count of elements                        : 1303
Stream size                              : 36.8 KiB (0%)
Title                                    : English
Language                                 : English
Default                                  : No
Forced                                   : No




                                                                                                                                                                                                        
                                                                                                                                                                                                                                                                                                                                                                                                                                                                                                                                                                                                                                                                                                                                                                                                                                                        
4b36661fa05cdc102e1984d9b2d47ffe.zip (52.18 KB, 下载次数: 0)

回复

使用道具 举报

小黑屋|西西论坛

本网站所有资源来自网络,如无意中侵犯了您的权益,请发邮件至 [email protected],立即清除相关链接

GMT+8, 2021-9-26 22:08 , Processed in 0.081066 second(s), 17 queries .

Powered by Discuz! X3.2

© 2001-2013 Comsenz Inc.

快速回复 返回顶部 返回列表