西西论坛

 找回密码
 立即注册
搜索

[4K-原盘] 十诫 The.Ten.Commandments.1956.2160p.BluRay.REMUX.HEVC.DTS-HD.MA.5.1-FGT 84...

[复制链接]
电影首发 发表于 2021-3-24 21:35:58 | 显示全部楼层 |阅读模式
-->
帖子完整标题:十诫 The.Ten.Commandments.1956.2160p.BluRay.REMUX.HEVC.DTS-HD.MA.5.1-FGT 84.44GB



[/url]

◎译  名 十诫
◎片  名 The Ten Commandments
◎年  代 1956
◎产  地 美国
◎类  别 剧情 / 历史 / 冒险
◎语  言 英语
◎上映日期 1956-10-05(美国)
◎IMDb评分  7.9/10 from 63971 users
◎片  长 220分钟
◎导  演 塞西尔·B·戴米尔 Cecil B. DeMille
◎主  演 查尔顿·赫斯顿 Charlton Heston
       尤·伯连纳 Yul Brynner
       安妮·巴克斯特 Anne Baxter
       爱德华·罗宾逊 Edward G. Robinson
       伊冯娜·德·卡洛 Yvonne De Carlo
       黛博拉·佩吉特 Debra Paget
       约翰·德里克 John Derek
       塞德里克·哈德威克 Cedric Hardwicke
       尼娜·弗彻 Nina Foch
       玛莎·斯考特 Martha Scott
       朱迪丝·安德森 Judith Anderson
       文森特·普莱斯 Vincent Price
       约翰·卡拉丁 John Carradine
       奥利芙迪琳 Olive Deering
       道格拉斯·敦布里勒 Douglass Dumbrille

◎标  签 宗教 | 史诗 | 美国 | 圣经 | 经典 | 历史 | 信仰 | 美国电影

◎简  介

  电影《十诫》在影史上有着不可动摇地位,取材自《旧约圣经》的《出埃及记》,讲述了犹太先知摩西(查尔登·海斯顿饰)的一生。在经历各种苦难考验后,上帝耶和华将“十诫”授予摩西,并赐予力量于摩西。摩西领导饱受苦难的希伯来人出走埃及,穿越红海,重新建立新的生活。
  
  1956年 由派 拉蒙电影公司制作,由打造好莱坞黄金时代的导演塞西尔·B·戴米尔执导的史诗电影《十诫》,荣获1957年第29届奥斯卡金像奖最佳音效、最佳剪辑、最佳服装设计、最佳摄影、最佳艺术指导、最佳影片、及最佳特效等多项提名。本片被美国国家电影保护局列为政府收藏作品,是一部不可错过的影史经典之作。

◎获奖情况

  第29届奥斯卡金像奖 ?(1957)
  最佳影片(提名) 塞西尔·B·戴米尔
  彩色片最佳摄影(提名) 洛亚尔·格里格斯
  最佳剪辑(提名) 安妮·鲍切恩斯
  最佳特效 约翰·P·富尔顿
  最佳录音(提名) 洛伦·L·里德
  彩色片最佳艺术指导和布景(提名) 萨姆·库默?/?阿尔伯特·诺扎基?/?沃尔特·H·泰勒?/?雷·莫耶?/?哈尔·佩雷拉
  彩色片最佳服装设计(提名) 多罗西·吉金斯?/?阿诺德·弗莱伯格?/?约翰·詹森?/?伊迪丝·海德?/?拉尔夫·杰斯特
  
  第14届金球奖 ?(1957)
  电影类剧情片最佳男主角(提名) 查尔顿·赫斯顿
Video
ID                                       : 1
ID in the original source medium         : 4113 (0x1011)
Format                                   : HEVC
Format/Info                              : High Efficiency Video Coding
Format profile                           : Main @High
HDR format                               : SMPTE ST 2086, HDR10 compatible
Codec ID                                 : V_MPEGH/ISO/HEVC
Duration                                 : 3 h 51 min
Bit rate                                 : 47.4 Mb/s
Width                                    : 3 840 pixels
Height                                   : 2 160 pixels
Display aspect ratio                     : 16:9
Frame rate mode                          : Constant
Frame rate                               : 23.976 (24000/1001/189150) FPS
Color space                              : YUV
Chroma subsampling                       : 4:2:0 (Type 2)
Bit depth                                : 10 bits
Bits/(Pixel*Frame)                       : 0.238
Stream size                              : 76.7 GiB (91%)
Language                                 : English
Default                                  : No
Forced                                   : No
Color range                              : Limited
Color primaries                          : BT.2020
Transfer characteristics                 : PQ
Matrix coefficients                      : BT.2020 non-constant
Mastering display color primaries        : Display P3
Mastering display luminance              : min: 0.0050 cd/m2, max: 4000 cd/m2
Maximum Content Light Level              : 1281 cd/m2
Maximum Frame-Average Light Level        : 148 cd/m2
Original source medium                   : Blu-ray

Audio #1
ID                                       : 2
ID in the original source medium         : 4352 (0x1100)
Format                                   : DTS XLL
Format/Info                              : Digital Theater Systems
Commercial name                          : DTS-HD Master Audio
Codec ID                                 : A_DTS
Duration                                 : 3 h 51 min
Bit rate mode                            : Variable
Bit rate                                 : 3 320 kb/s
Channel(s)                               : 6 channels
Channel layout                           : C L R Ls Rs LFE
Sampling rate                            : 48.0 kHz
Frame rate                               : 93.750 FPS (512 SPF)
Bit depth                                : 24 bits
Compression mode                         : Lossless
Stream size                              : 5.37 GiB (6%)
Title                                    : DTS-HD MA 5.1
Language                                 : English
Default                                  : Yes
Forced                                   : No
Original source medium                   : Blu-ray

Audio #2
ID                                       : 3
Format                                   : AC-3
Format/Info                              : Audio Coding 3
Commercial name                          : Dolby Digital
Codec ID                                 : A_AC3
Duration                                 : 3 h 51 min
Bit rate mode                            : Constant
Bit rate                                 : 640 kb/s
Channel(s)                               : 6 channels
Channel layout                           : L R C LFE Ls Rs
Sampling rate                            : 48.0 kHz
Frame rate                               : 31.250 FPS (1536 SPF)
Compression mode                         : Lossy
Stream size                              : 1.04 GiB (1%)
Title                                    : DD 5.1
Language                                 : English
Service kind                             : Complete Main
Default                                  : No
Forced                                   : No

Audio #3
ID                                       : 4
ID in the original source medium         : 4353 (0x1101)
Format                                   : AC-3
Format/Info                              : Audio Coding 3
Commercial name                          : Dolby Digital
Codec ID                                 : A_AC3
Duration                                 : 3 h 51 min
Bit rate mode                            : Constant
Bit rate                                 : 224 kb/s
Channel(s)                               : 2 channels
Channel layout                           : L R
Sampling rate                            : 48.0 kHz
Frame rate                               : 31.250 FPS (1536 SPF)
Compression mode                         : Lossy
Stream size                              : 371 MiB (0%)
Title                                    : DD 2.0
Language                                 : German
Service kind                             : Complete Main
Default                                  : No
Forced                                   : No
Original source medium                   : Blu-ray

Audio #4
ID                                       : 5
ID in the original source medium         : 4354 (0x1102)
Format                                   : AC-3
Format/Info                              : Audio Coding 3
Commercial name                          : Dolby Digital
Codec ID                                 : A_AC3
Duration                                 : 3 h 51 min
Bit rate mode                            : Constant
Bit rate                                 : 224 kb/s
Channel(s)                               : 2 channels
Channel layout                           : L R
Sampling rate                            : 48.0 kHz
Frame rate                               : 31.250 FPS (1536 SPF)
Compression mode                         : Lossy
Stream size                              : 371 MiB (0%)
Title                                    : DD 2.0
Language                                 : French
Service kind                             : Complete Main
Default                                  : No
Forced                                   : No
Original source medium                   : Blu-ray

Audio #5
ID                                       : 6
ID in the original source medium         : 4355 (0x1103)
Format                                   : AC-3
Format/Info                              : Audio Coding 3
Commercial name                          : Dolby Digital
Codec ID                                 : A_AC3
Duration                                 : 3 h 51 min
Bit rate mode                            : Constant
Bit rate                                 : 224 kb/s
Channel(s)                               : 2 channels
Channel layout                           : L R
Sampling rate                            : 48.0 kHz
Frame rate                               : 31.250 FPS (1536 SPF)
Compression mode                         : Lossy
Stream size                              : 371 MiB (0%)
Title                                    : DD 2.0
Language                                 : English
Service kind                             : Complete Main
Default                                  : No
Forced                                   : No
Original source medium                   : Blu-ray

Text #1
ID                                       : 7
Format                                   : UTF-8
Codec ID                                 : S_TEXT/UTF8
Codec ID/Info                            : UTF-8 Plain Text
Duration                                 : 3 h 43 min
Bit rate                                 : 54 b/s
Count of elements                        : 2648
Stream size                              : 89.9 KiB (0%)
Title                                    : English-SRT
Language                                 : English
Default                                  : Yes
Forced                                   : No

Text #2
ID                                       : 8
ID in the original source medium         : 4768 (0x12A0)
Format                                   : PGS
Muxing mode                              : zlib
Codec ID                                 : S_HDMV/PGS
Codec ID/Info                            : Picture based subtitle format used on BDs/HD-DVDs
Duration                                 : 3 h 43 min
Bit rate                                 : 38.3 kb/s
Count of elements                        : 5312
Stream size                              : 61.3 MiB (0%)
Title                                    : English-PGS
Language                                 : English
Default                                  : No
Forced                                   : No
Original source medium                   : Blu-ray

Text #3
ID                                       : 9
ID in the original source medium         : 4769 (0x12A1)
Format                                   : PGS
Muxing mode                              : zlib
Codec ID                                 : S_HDMV/PGS
Codec ID/Info                            : Picture based subtitle format used on BDs/HD-DVDs
Duration                                 : 3 h 43 min
Bit rate                                 : 41.2 kb/s
Count of elements                        : 5739
Stream size                              : 65.9 MiB (0%)
Title                                    : English-SDhHPGS
Language                                 : English
Default                                  : No
Forced                                   : No
Original source medium                   : Blu-ray

Text #4
ID                                       : 10
ID in the original source medium         : 4770 (0x12A2)
Format                                   : PGS
Muxing mode                              : zlib
Codec ID                                 : S_HDMV/PGS
Codec ID/Info                            : Picture based subtitle format used on BDs/HD-DVDs
Duration                                 : 3 h 51 min
Bit rate                                 : 39.2 kb/s
Count of elements                        : 5318
Stream size                              : 64.8 MiB (0%)
Title                                    : German-PGS
Language                                 : German
Default                                  : No
Forced                                   : No
Original source medium                   : Blu-ray

Text #5
ID                                       : 11
ID in the original source medium         : 4770 (0x12A2)
Format                                   : PGS
Muxing mode                              : zlib
Codec ID                                 : S_HDMV/PGS
Codec ID/Info                            : Picture based subtitle format used on BDs/HD-DVDs
Duration                                 : 3 h 51 min
Bit rate                                 : 185 b/s
Count of elements                        : 26
Stream size                              : 315 KiB (0%)
Title                                    : German-FORCED-PGS
Language                                 : German
Default                                  : No
Forced                                   : No
Original source medium                   : Blu-ray

Text #6
ID                                       : 12
ID in the original source medium         : 4771 (0x12A3)
Format                                   : PGS
Muxing mode                              : zlib
Codec ID                                 : S_HDMV/PGS
Codec ID/Info                            : Picture based subtitle format used on BDs/HD-DVDs
Duration                                 : 3 h 51 min
Bit rate                                 : 38.0 kb/s
Count of elements                        : 5352
Stream size                              : 62.9 MiB (0%)
Title                                    : French-PGS
Language                                 : French
Default                                  : No
Forced                                   : No
Original source medium                   : Blu-ray

Text #7
ID                                       : 13
ID in the original source medium         : 4771 (0x12A3)
Format                                   : PGS
Muxing mode                              : zlib
Codec ID                                 : S_HDMV/PGS
Codec ID/Info                            : Picture based subtitle format used on BDs/HD-DVDs
Duration                                 : 3 h 51 min
Bit rate                                 : 295 b/s
Count of elements                        : 34
Stream size                              : 502 KiB (0%)
Title                                    : French-FORCED-PGS
Language                                 : French
Default                                  : No
Forced                                   : No
Original source medium                   : Blu-ray

Text #8
ID                                       : 14
ID in the original source medium         : 4772 (0x12A4)
Format                                   : PGS
Muxing mode                              : zlib
Codec ID                                 : S_HDMV/PGS
Codec ID/Info                            : Picture based subtitle format used on BDs/HD-DVDs
Duration                                 : 3 h 44 min
Bit rate                                 : 69.5 kb/s
Count of elements                        : 7100
Stream size                              : 112 MiB (0%)
Title                                    : English-COMMENTARY-PGS
Language                                 : English
Default                                  : No
Forced                                   : No
Original source medium                   : Blu-ray

Text #9
ID                                       : 15
ID in the original source medium         : 4773 (0x12A5)
Format                                   : PGS
Muxing mode                              : zlib
Codec ID                                 : S_HDMV/PGS
Codec ID/Info                            : Picture based subtitle format used on BDs/HD-DVDs
Duration                                 : 3 h 51 min
Bit rate                                 : 58.2 kb/s
Count of elements                        : 6196
Stream size                              : 96.4 MiB (0%)
Title                                    : German-COMMENTARY-PGS
Language                                 : German
Default                                  : No
Forced                                   : No
Original source medium                   : Blu-ray

Text #10
ID                                       : 16
ID in the original source medium         : 4774 (0x12A6)
Format                                   : PGS
Muxing mode                              : zlib
Codec ID                                 : S_HDMV/PGS
Codec ID/Info                            : Picture based subtitle format used on BDs/HD-DVDs
Duration                                 : 3 h 51 min
Bit rate                                 : 56.5 kb/s
Count of elements                        : 6892
Stream size                              : 93.5 MiB (0%)
Title                                    : French-COMMENTARY-PGS
Language                                 : French
Default                                  : No
Forced                                   : No
Original source medium                   : Blu-ray

Menu
00:00:00.000                             : en:Chapter 01
00:01:40.391                             : en:Chapter 02
00:04:05.161                             : en:Chapter 03
00:09:44.166                             : en:Chapter 04
00:12:55.274                             : en:Chapter 05
00:17:04.898                             : en:Chapter 06
00:20:20.886                             : en:Chapter 07
00:25:58.014                             : en:Chapter 08
00:27:29.689                             : en:Chapter 09
00:30:49.222                             : en:Chapter 10
00:36:17.175                             : en:Chapter 11
00:38:17.670                             : en:Chapter 12
00:43:47.041                             : en:Chapter 13
00:49:26.964                             : en:Chapter 14
00:59:30.108                             : en:Chapter 15
01:07:28.294                             : en:Chapter 16
01:15:25.812                             : en:Chapter 17
01:18:42.467                             : en:Chapter 18
01:27:31.246                             : en:Chapter 19
01:38:42.291                             : en:Chapter 20
01:41:58.695                             : en:Chapter 21
01:44:10.077                             : en:Chapter 22
01:47:28.150                             : en:Chapter 23
01:53:08.990                             : en:Chapter 24
01:56:30.441                             : en:Chapter 25
01:59:40.256                             : en:Chapter 26
02:02:49.320                             : en:Chapter 27
02:05:54.463                             : en:Chapter 28
02:08:43.757                             : en:Chapter 29
02:15:49.975                             : en:Chapter 30
02:18:05.068                             : en:Chapter 31
02:23:20.925                             : en:Chapter 32
02:25:09.951                             : en:Chapter 33
02:29:49.689                             : en:Chapter 34
02:37:17.344                             : en:Chapter 35
02:44:31.820                             : en:Chapter 36
02:46:48.456                             : en:Chapter 37
02:55:14.086                             : en:Chapter 38
02:58:59.979                             : en:Chapter 39
03:10:00.847                             : en:Chapter 40
03:14:23.568                             : en:Chapter 41
03:19:28.081                             : en:Chapter 42
03:29:06.408                             : en:Chapter 43
03:32:01.166                             : en:Chapter 44
03:37:55.687                             : en:Chapter 45
03:40:34.930                             : en:Chapter 46
03:43:05.872                             : en:Chapter 47
03:46:52.390                             : en:Chapter 48




                                                                                                                                                                                                        
                                                                                                                                                                                                                                                                                                                                                                                                                                                                                                                                                                                                                                                                                                                                                                                                                                                        
9ed8275b31cdcc2b5c3a0bb2b2186bf2.zip (211.82 KB, 下载次数: 0)

回复

使用道具 举报

小黑屋|西西论坛

本网站所有资源来自网络,如无意中侵犯了您的权益,请发邮件至 [email protected],立即清除相关链接

GMT+8, 2021-9-26 20:30 , Processed in 0.107818 second(s), 17 queries .

Powered by Discuz! X3.2

© 2001-2013 Comsenz Inc.

快速回复 返回顶部 返回列表