西西论坛

 找回密码
 立即注册
搜索

[BD-4K] 查帕奎迪克 Chappaquiddick.2017.2160p.AMZN.WEB-DL.x265.10bit.HDR10Plus.DT...

[复制链接]
电影首发 发表于 2021-3-23 12:22:43 | 显示全部楼层 |阅读模式
-->
帖子完整标题:查帕奎迪克 Chappaquiddick.2017.2160p.AMZN.WEB-DL.x265.10bit.HDR10Plus.DTS-HD.MA.5.1-SWTYBLZ 13.60GB


[/url]

◎译  名 查帕奎迪克/The Last Son/查帕奎迪克事件
◎片  名 Chappaquiddick
◎年  代 2017
◎产  地 瑞典,美国
◎类  别 剧情 / 惊悚 / 历史
◎语  言 英语
◎上映日期 2017-09-10(多伦多电影节) / 2018-04-06(美国)
◎IMDb评分  6.4/10 from 12187 users
◎  
◎豆瓣评分 5.9/10 from 388 users
◎ 
◎片  长 106分钟
◎导  演 约翰·卡兰 John Curran
◎编  剧 泰勒·艾伦 Taylor Allen / 安德鲁·罗根 Andrew Logan
◎主  演 杰森·克拉克 Jason Clarke
       凯特·玛拉 Kate Mara
       艾德·赫尔姆斯 Ed Helms
       布鲁斯·邓恩 Bruce Dern
       吉姆·加菲根 Jim Gaffigan
       奥莉薇·瑟尔比 Olivia Thirlby
       克兰西·布朗 Clancy Brown
       泰勒·尼科斯 Taylor Nichols
       约翰·菲奥里 John Fiore
       吉利恩·玛瑞娜·戈登 Gillian Mariner Gordon
       凯蒂·亨诺克 Katie Henoch
       莱克西·罗斯 Lexie Roth
       安吉拉·霍普·史密斯 Angela Hope Smith
       文斯·泰瑟 Vince Tycer
       维克多·沃伦 Victor Warren
       大卫·德·贝克 David De Beck
       安德莉亚·布莱克曼 Andria Blackman
       比尔·亨弗瑞斯 Bill Humphreys
       汤姆·奥布莱恩 Tom O'Brien
       莎拉·伊丽莎白·米切尔 Sarah Elizabeth Mitchell
       保罗·佩普 Paul Pape
       雅各布·海德 Jacob Head
       克里斯·埃杰利 Chris Edgerly
       瓦利·维吉尔特 Wally Wingert
       苏珊·加比布托 Susan Garibotto

◎标  签 美国 | 传记 | 历史 | 政治 | 肯尼迪家族 | 剧情 | 2018 | 2017

◎简  介

  澳大利亚男演员杰森·克拉科将出演影片《查帕奎迪克岛》(Chappaquiddick,暂译),他在片中饰演肯尼迪家族成员之一参议员爱德华·肯尼迪,即肯尼迪总统的弟弟。《面纱》导演约翰·卡兰执导筒。影片将聚焦1969年以爱德华·肯尼迪为核心的“查帕奎迪克丑闻事件”,“肯尼迪诅咒”再次现身大银幕。
Video
ID                                       : 1
Format                                   : HEVC
Format/Info                              : High Efficiency Video Coding
Format profile                           : Main @Main
HDR format                               : SMPTE ST 2094 App 4, Version 1, HDR10+ Profile B compatible
Codec ID                                 : V_MPEGH/ISO/HEVC
Duration                                 : 1 h 46 min
Bit rate                                 : 14.6 Mb/s
Width                                    : 3 840 pixels
Height                                   : 1 600 pixels
Display aspect ratio                     : 2.40:1
Frame rate mode                          : Constant
Frame rate                               : 23.976 (24000/1001/189150) FPS
Color space                              : YUV
Chroma subsampling                       : 4:2:0
Bit depth                                : 10 bits
Bits/(Pixel*Frame)                       : 0.099
Stream size                              : 10.9 GiB (80%)
Default                                  : Yes
Forced                                   : No
Color range                              : Limited
Color primaries                          : BT.2020
Transfer characteristics                 : PQ
Matrix coefficients                      : BT.2020 non-constant
Mastering display color primaries        : Display P3
Mastering display luminance              : min: 0.0050 cd/m2, max: 1000 cd/m2
Maximum Content Light Level              : 6503 cd/m2
Maximum Frame-Average Light Level        : 235 cd/m2

Audio #1
ID                                       : 2
Format                                   : DTS XLL
Format/Info                              : Digital Theater Systems
Commercial name                          : DTS-HD Master Audio
Codec ID                                 : A_DTS
Duration                                 : 1 h 46 min
Bit rate mode                            : Variable
Bit rate                                 : 2 974 kb/s
Channel(s)                               : 6 channels
Channel layout                           : C L R Ls Rs LFE
Sampling rate                            : 48.0 kHz
Frame rate                               : 93.750 FPS (512 SPF)
Bit depth                                : 24 bits
Compression mode                         : Lossless
Stream size                              : 2.22 GiB (16%)
Title                                    : DTS-HD MA 5.1
Language                                 : English
Default                                  : Yes
Forced                                   : No

Audio #2
ID                                       : 3
Format                                   : E-AC-3
Format/Info                              : Enhanced AC-3
Commercial name                          : Dolby Digital Plus
Codec ID                                 : A_EAC3
Duration                                 : 1 h 46 min
Bit rate mode                            : Constant
Bit rate                                 : 640 kb/s
Channel(s)                               : 6 channels
Channel layout                           : L R C LFE Ls Rs
Sampling rate                            : 48.0 kHz
Frame rate                               : 31.250 FPS (1536 SPF)
Compression mode                         : Lossy
Stream size                              : 488 MiB (4%)
Title                                    : DDP 5.1
Language                                 : English
Service kind                             : Complete Main
Default                                  : No
Forced                                   : No

Text
ID                                       : 4
Format                                   : UTF-8
Codec ID                                 : S_TEXT/UTF8
Codec ID/Info                            : UTF-8 Plain Text
Duration                                 : 1 h 39 min
Bit rate                                 : 79 b/s
Count of elements                        : 1730
Stream size                              : 57.5 KiB (0%)
Title                                    : SDH
Language                                 : English
Default                                  : Yes
Forced                                   : No

Menu
00:00:00.000                             : en:Chapter 1
00:06:37.856                             : en:Chapter 2
00:14:07.055                             : en:Chapter 3
00:18:17.805                             : en:Chapter 4
00:25:18.183                             : en:Chapter 5
00:31:13.872                             : en:Chapter 6
00:39:24.028                             : en:Chapter 7
00:43:36.489                             : en:Chapter 8
00:52:55.756                             : en:Chapter 9
00:59:25.687                             : en:Chapter 10
01:04:53.681                             : en:Chapter 11
01:11:06.846                             : en:Chapter 12
01:18:16.442                             : en:Chapter 13
01:26:28.350                             : en:Chapter 14
01:32:44.767                             : en:Chapter 15
01:39:29.338                             : en:Chapter 16




                                                                                                                                                                                                        
                                                                                                                                                                                                                                                                                                                                                                                                                                                                                                                                                                                                                                                                                                                                                                                                                                                        
48b5f9f7825b800a2c65df509030e7d2.zip (68.73 KB, 下载次数: 0)

回复

使用道具 举报

小黑屋|西西论坛

本网站所有资源来自网络,如无意中侵犯了您的权益,请发邮件至 [email protected],立即清除相关链接

GMT+8, 2021-9-26 21:47 , Processed in 0.103160 second(s), 17 queries .

Powered by Discuz! X3.2

© 2001-2013 Comsenz Inc.

快速回复 返回顶部 返回列表