西西论坛

 找回密码
 立即注册
搜索

[4K-原盘] 杀人狂魔/剥头煞星 Maniac.2012.2160p.BluRay.REMUX.HEVC.DTS-HD.MA.5.1-F...

[复制链接]
电影首发 发表于 2021-3-22 09:18:30 | 显示全部楼层 |阅读模式
-->
帖子完整标题:杀人狂魔/剥头煞星 Maniac.2012.2160p.BluRay.REMUX.HEVC.DTS-HD.MA.5.1-FGT 43.43GB


[/url]

◎译  名 杀人狂魔/剥头煞星/疯子
◎片  名 Maniac
◎年  代 2012
◎产  地 美国
◎类  别 悬疑 / 恐怖 / 犯罪
◎语  言 英语
◎上映日期 2013-06-21(美国)
◎IMDb评分  6.1/10 from 35309 users
◎  
◎豆瓣评分 5.8/10 from 2350 users
◎ 
◎片  长 89分钟
◎导  演 弗兰克·卡方 Franck Khalfoun
◎编  剧 亚历山大·阿嘉 Alexandre Aja / 格莱高利·莱瓦瑟 Grégory Levasseur
◎主  演 伊利亚·伍德 Elijah Wood
       阿美莉嘉·奥利沃 America Olivo
       诺拉·阿娜泽德尔 Nora Arnezeder
       莫嘉娜·斯奈普 Morgane Slemp
       莲妮·芭拉班 Liane Balaban
       布赖恩·艾姆斯 Brian Ames
       Steffinnie Phrommany
       阿卡巴尔·库尔塔 Akbar Kurtha

◎标  签 恐怖 | 惊悚 | 美国 | 血腥 | 犯罪 | 2012 | 翻拍 | 悬疑

◎简  介

  母亲的意外丧生让弗兰克(伊利亚·伍德 Elijah Wood 饰)陷入了深深的痛苦之中,虽然母亲生前并非善类,甚至动辄就对弗兰克拳打脚踢,但在弗兰克的心目中,母亲的重要地位没有任何人能够代替。丧母之痛淤积在心中渐渐变质,杀人成为了他唯一的宣泄途径,无数的妙龄少女成为了弗 兰克的刀下冤魂,不仅如此,变态的弗兰克还将她们的头皮剥下来,置于家中欣赏。
  
  一次偶然中,弗兰克结识了摄影师安娜(卡罗琳·莫罗 Caroline Munro 饰),对于弗兰克来说,这是第一次也是唯一的一次,他没有将安娜视作猎物,而是一个善良热情的女人。可是,弗兰克内心里的兽性无法压制蠢蠢欲动,伤害安娜似乎成为了无法避免的结果。
Video
ID                                       : 1
ID in the original source medium         : 4113 (0x1011)
Format                                   : HEVC
Format/Info                              : High Efficiency Video Coding
Format profile                           : Main @High
HDR format                               : SMPTE ST 2086, HDR10 compatible
Codec ID                                 : V_MPEGH/ISO/HEVC
Duration                                 : 1 h 28 min
Bit rate                                 : 63.7 Mb/s
Width                                    : 3 840 pixels
Height                                   : 2 160 pixels
Display aspect ratio                     : 16:9
Frame rate mode                          : Constant
Frame rate                               : 24.000 FPS
Color space                              : YUV
Chroma subsampling                       : 4:2:0 (Type 2)
Bit depth                                : 10 bits
Bits/(Pixel*Frame)                       : 0.320
Stream size                              : 39.5 GiB (91%)
Language                                 : English
Default                                  : No
Forced                                   : No
Color range                              : Limited
Color primaries                          : BT.2020
Transfer characteristics                 : PQ
Matrix coefficients                      : BT.2020 non-constant
Mastering display color primaries        : BT.2020
Mastering display luminance              : min: 0.0001 cd/m2, max: 1000 cd/m2
Maximum Content Light Level              : 1000 cd/m2
Maximum Frame-Average Light Level        : 180 cd/m2
Original source medium                   : Blu-ray

Audio #1
ID                                       : 2
ID in the original source medium         : 4353 (0x1101)
Format                                   : DTS XLL
Format/Info                              : Digital Theater Systems
Commercial name                          : DTS-HD Master Audio
Codec ID                                 : A_DTS
Duration                                 : 1 h 28 min
Bit rate mode                            : Variable
Bit rate                                 : 1 899 kb/s
Channel(s)                               : 6 channels
Channel layout                           : C L R Ls Rs LFE
Sampling rate                            : 48.0 kHz
Frame rate                               : 93.750 FPS (512 SPF)
Bit depth                                : 16 bits
Compression mode                         : Lossless
Stream size                              : 1.18 GiB (3%)
Title                                    : DTS-HD MA 5.1
Language                                 : English
Default                                  : Yes
Forced                                   : No
Original source medium                   : Blu-ray

Audio #2
ID                                       : 3
Format                                   : AC-3
Format/Info                              : Audio Coding 3
Commercial name                          : Dolby Digital
Codec ID                                 : A_AC3
Duration                                 : 1 h 28 min
Bit rate mode                            : Constant
Bit rate                                 : 640 kb/s
Channel(s)                               : 6 channels
Channel layout                           : L R C LFE Ls Rs
Sampling rate                            : 48.0 kHz
Frame rate                               : 31.250 FPS (1536 SPF)
Compression mode                         : Lossy
Stream size                              : 407 MiB (1%)
Title                                    : DD 5.1
Language                                 : English
Service kind                             : Complete Main
Default                                  : No
Forced                                   : No

Audio #3
ID                                       : 4
ID in the original source medium         : 4352 (0x1100)
Format                                   : DTS XLL
Format/Info                              : Digital Theater Systems
Commercial name                          : DTS-HD Master Audio
Codec ID                                 : A_DTS
Duration                                 : 1 h 28 min
Bit rate mode                            : Variable
Bit rate                                 : 3 725 kb/s
Channel(s)                               : 6 channels
Channel layout                           : C L R Ls Rs LFE
Sampling rate                            : 48.0 kHz
Frame rate                               : 93.750 FPS (512 SPF)
Bit depth                                : 24 bits
Compression mode                         : Lossless
Stream size                              : 2.31 GiB (5%)
Title                                    : DTS-HD MA 5.1
Language                                 : German
Default                                  : No
Forced                                   : No
Original source medium                   : Blu-ray

Text #1
ID                                       : 5
Format                                   : UTF-8
Codec ID                                 : S_TEXT/UTF8
Codec ID/Info                            : UTF-8 Plain Text
Duration                                 : 1 h 22 min
Bit rate                                 : 35 b/s
Count of elements                        : 725
Stream size                              : 21.7 KiB (0%)
Title                                    : English-SRT
Language                                 : English
Default                                  : Yes
Forced                                   : No

Text #2
ID                                       : 6
ID in the original source medium         : 4768 (0x12A0)
Format                                   : PGS
Muxing mode                              : zlib
Codec ID                                 : S_HDMV/PGS
Codec ID/Info                            : Picture based subtitle format used on BDs/HD-DVDs
Duration                                 : 1 h 28 min
Bit rate                                 : 13.9 kb/s
Count of elements                        : 1476
Stream size                              : 8.74 MiB (0%)
Title                                    : German-PGS
Language                                 : German
Default                                  : No
Forced                                   : No
Original source medium                   : Blu-ray

Text #3
ID                                       : 7
ID in the original source medium         : 4769 (0x12A1)
Format                                   : PGS
Muxing mode                              : zlib
Codec ID                                 : S_HDMV/PGS
Codec ID/Info                            : Picture based subtitle format used on BDs/HD-DVDs
Duration                                 : 45 min 38 s
Bit rate                                 : 473 b/s
Count of elements                        : 22
Stream size                              : 158 KiB (0%)
Title                                    : German-FORCED-PGS
Language                                 : German
Default                                  : No
Forced                                   : No
Original source medium                   : Blu-ray

Menu
00:00:00.000                             : de:Chapter 01
00:08:59.000                             : de:Chapter 02
00:17:34.375                             : de:Chapter 03
00:26:33.333                             : de:Chapter 04
00:35:30.750                             : de:Chapter 05
00:44:20.083                             : de:Chapter 06
00:53:28.750                             : de:Chapter 07
01:02:23.166                             : de:Chapter 08
01:10:59.708                             : de:Chapter 09
01:20:10.000                             : de:Chapter 10




                                                                                                                                                                                                        
                                                                                                                                                                                                                                                                                                                                                                                                                                                                                                                                                                                                                                                                                                                                                                                                                                                        
b598748ee865c7a067212f75807cf499.zip (109.26 KB, 下载次数: 0)

回复

使用道具 举报

小黑屋|西西论坛

本网站所有资源来自网络,如无意中侵犯了您的权益,请发邮件至 [email protected],立即清除相关链接

GMT+8, 2021-9-26 22:15 , Processed in 0.107075 second(s), 17 queries .

Powered by Discuz! X3.2

© 2001-2013 Comsenz Inc.

快速回复 返回顶部 返回列表