西西论坛

 找回密码
 立即注册
搜索

[4K-原盘] 世界新闻/结叛同行 News.of.the.World.2020.2160p.BluRay.REMUX.HEVC.DTS-HD.MA.TrueH ...

[复制链接]
电影首发 发表于 2021-3-22 09:18:30 | 显示全部楼层 |阅读模式
-->
帖子完整标题:世界新闻/结叛同行 News.of.the.World.2020.2160p.BluRay.REMUX.HEVC.DTS-HD.MA.TrueHD.7.1.Atmos-FGT 48.84GB




◎译  名 世界新闻/结叛同行(港)/读报人(台)
◎片  名 News of the World
◎年  代 2020
◎产  地 美国
◎类  别 剧情 / 动作 / 西部 / 冒险
◎语  言 英语
◎上映日期 2020-12-25(美国) / 2021-01-15(美国网络)
◎IMDb评分  6.8/10 from 47870 users
◎  https://www.imdb.com/title/tt6878306/
◎豆瓣评分 7.1/10 from 3732 users
◎ 
◎片  长 118分钟
◎导  演 保罗·格林格拉斯 Paul Greengrass
◎编  剧 保罗·格林格拉斯 Paul Greengrass / 卢克·戴维斯 Luke Davies / 波莱特·吉尔斯 Paulette Jiles
◎主  演 汤姆·汉克斯 Tom Hanks
       海伦娜·泽格尔 Helena Zengel
       伊丽莎白·玛维尔 Elizabeth Marvel
       雷·迈克金农 Ray McKinnon
       梅尔·温宁汉姆 Mare Winningham
       尼尔·桑迪兰兹 Neil Sandilands
       楚克武迪·武吉 Chukwudi Iwuji
       托马斯·弗兰西斯·墨菲 Thomas Francis Murphy
       米歇尔·坎贝尔 Michelle Campbell
       弗莱德·赫钦格 Fred Hechinger
       迈克尔·安盖洛·科维诺 Michael Angelo Covino
       斯塔福德·道格拉斯 Stafford Douglas
       J·内森·西蒙斯 J. Nathan Simmons
       斯蒂芬妮·希尔 Stephanie Hill
       布兰登·韦德纳 Brenden Wedner
       汤姆·阿斯特 Tom Astor
       安迪·卡斯特利奇 Andy Kastelic
       克林特·奥本钦 Clint Obenchain

◎标  签 美国 | 西部 | 剧情 | 西部片 | 2020 | 小说改编 | 动作 | 文学作品改编

◎简  介

  美国内战结束后五年,三场战争的退伍军官杰佛森凯尔基得上尉(汤姆·汉克斯 饰),现在以读报人的身份从一个小镇到另一个小镇,和当地居民分享世界各地的精彩新闻。他在德州的平原遇到乔韩娜(海伦娜·泽格尔 饰),一 个六年前被凯奥瓦印第安人掳走并被收养的十岁女孩。乔韩娜对她未曾体验过的世界充满敌意,而且被迫被送回她的阿姨和姨丈身边。基得上尉答应护送这女孩回到她依照法律应该属于的地方。他们必须在环境严苛的野外跋山涉水好几百英哩,而且这两人在寻找一个他们都可以称为家园的地方时,将面对来自人类和大自然的巨大挑战。
  
  该片根据波莱特·吉尔斯同名小说改编。

◎获奖情况

  第93届奥斯卡金像奖 ?(2021)
  最佳摄影(提名) 达瑞兹·沃斯基
  最佳音响(提名) 约翰·普里切特?/?迈克·普雷斯特伍德·史密斯?/?奥利弗·塔尔尼
  最佳艺术指导(提名) 伊丽莎白·基南?/?大卫·格兰克
  最佳原创配乐(提名) 詹姆斯·纽顿·霍华德
  
  第78届金球奖 ?(2021)
  电影类最佳女配角(提名) 海伦娜·泽格尔
  电影类最佳原创配乐(提名)
  
  第74届英国电影学院奖 ?(2021)
  电影奖最佳摄影(提名)
  电影奖最佳艺术指导(提名)
  电影奖最佳原创配乐(提名)
  电影奖最佳音效(提名)
  
  第27届美国演员工会奖 ?(2021)
  电影奖最佳女配角(提名) 海伦娜·泽格尔
  电影最佳特技群戏(提名)
  
  第25届美国艺术指导工会奖 ?(2021)
  电影奖最佳历史电影艺术指导(提名) 大卫·格兰克
  
  第68届美国音效剪辑协会奖 ?(2021)
  金卷轴奖最佳电影音效剪辑(提名)
  金卷轴奖最佳电影对白剪辑(提名)
  金卷轴奖最佳配乐剪辑(提名)
  
  第19届美国视觉效果协会奖 ?(2021)
  最佳电影辅助视觉效果(提名)
  
  第92届美国国家评论协会奖 ?(2020)
  最佳改编剧本 卢克·戴维斯?/?保罗·格林格拉斯
  年度佳片
  
  第26届美国评论家选择电影奖 ?(2021)
  最佳影片(提名)
  最佳男主角(提名) 汤姆·汉克斯
  最佳青少年演员(提名) 海伦娜·泽格尔
  最佳改编剧本(提名) 卢克·戴维斯?/?保罗·格林格拉斯
  最佳摄影(提名) 达瑞兹·沃斯基
  最佳配乐(提名) 詹姆斯·纽顿·霍华德
  最佳美术指导(提名) 伊丽莎白·基南?/?大卫·格兰克
  
  第25届金卫星奖 ?(2021)
  电影部门最佳女配角(提名) 海伦娜·泽格尔
  电影部门最佳改编剧本(提名) 卢克·戴维斯?/?保罗·格林格拉斯
  电影部门最佳原创配乐(提名) 詹姆斯·纽顿·霍华德
  电影部门最佳摄影(提名) 达瑞兹·沃斯基
  
  第33届芝加哥影评人协会奖 ?(2020)
  最具潜力演员(提名) 海伦娜·泽格尔
  
  第5届亚特兰大影评人协会奖 ?(2020)
  最佳摄影(提名)
Video
ID                                       : 1
ID in the original source medium         : 4113 (0x1011)
Format                                   : HEVC
Format/Info                              : High Efficiency Video Coding
Format profile                           : Main [email protected]@High
HDR format                               : SMPTE ST 2086, HDR10 compatible
Codec ID                                 : V_MPEGH/ISO/HEVC
Duration                                 : 1 h 58 min
Bit rate                                 : 48.6 Mb/s
Width                                    : 3 840 pixels
Height                                   : 2 160 pixels
Display aspect ratio                     : 16:9
Frame rate mode                          : Constant
Frame rate                               : 23.976 (24000/1001/189150) FPS
Color space                              : YUV
Chroma subsampling                       : 4:2:0 (Type 2)
Bit depth                                : 10 bits
Bits/(Pixel*Frame)                       : 0.244
Stream size                              : 40.1 GiB (82%)
Writing library                          : ATEME Titan File 3.9.6 (4.9.6.2)        
Language                                 : English
Default                                  : No
Forced                                   : No
Color range                              : Limited
Color primaries                          : BT.2020
Transfer characteristics                 : PQ
Matrix coefficients                      : BT.2020 non-constant
Mastering display color primaries        : Display P3
Mastering display luminance              : min: 0.0050 cd/m2, max: 1000 cd/m2
Maximum Content Light Level              : 1000 cd/m2
Maximum Frame-Average Light Level        : 184 cd/m2
Original source medium                   : Blu-ray

Audio #1
ID                                       : 2
ID in the original source medium         : 4352 (0x1100)
Format                                   : MLP FBA 16-ch
Format/Info                              : Meridian Lossless Packing FBA with 16-channel presentation
Commercial name                          : Dolby TrueHD with Dolby Atmos
Codec ID                                 : A_TRUEHD
Duration                                 : 1 h 58 min
Bit rate mode                            : Variable
Bit rate                                 : 4 292 kb/s
Maximum bit rate                         : 8 112 kb/s
Channel(s)                               : 8 channels
Channel layout                           : L R C LFE Ls Rs Lb Rb
Sampling rate                            : 48.0 kHz
Frame rate                               : 1 200.000 FPS (40 SPF)
Compression mode                         : Lossless
Stream size                              : 3.55 GiB (7%)
Title                                    : TrueHD 7.1 Atmos
Language                                 : English
Default                                  : Yes
Forced                                   : No
Original source medium                   : Blu-ray
Number of dynamic objects                : 11
Bed channel count                        : 1 channel
Bed channel configuration                : LFE

Audio #2
ID                                       : 3
Format                                   : DTS XLL
Format/Info                              : Digital Theater Systems
Commercial name                          : DTS-HD Master Audio
Codec ID                                 : A_DTS
Duration                                 : 1 h 58 min
Bit rate mode                            : Variable
Bit rate                                 : 4 231 kb/s
Channel(s)                               : 8 channels
Channel layout                           : C L R LFE Lb Rb Lss Rss
Sampling rate                            : 48.0 kHz
Frame rate                               : 93.750 FPS (512 SPF)
Bit depth                                : 24 bits
Compression mode                         : Lossless
Stream size                              : 3.50 GiB (7%)
Title                                    : DTS-HD MA 7.1
Language                                 : English
Default                                  : No
Forced                                   : No

Audio #3
ID                                       : 4
ID in the original source medium         : 4352 (0x1100)
Format                                   : AC-3
Format/Info                              : Audio Coding 3
Commercial name                          : Dolby Digital
Codec ID                                 : A_AC3
Duration                                 : 1 h 58 min
Bit rate mode                            : Constant
Bit rate                                 : 448 kb/s
Channel(s)                               : 6 channels
Channel layout                           : L R C LFE Ls Rs
Sampling rate                            : 48.0 kHz
Frame rate                               : 31.250 FPS (1536 SPF)
Compression mode                         : Lossy
Stream size                              : 379 MiB (1%)
Title                                    : DD 5.1
Language                                 : English
Service kind                             : Complete Main
Default                                  : No
Forced                                   : No
Original source medium                   : Blu-ray

Audio #4
ID                                       : 5
ID in the original source medium         : 4353 (0x1101)
Format                                   : AC-3
Format/Info                              : Audio Coding 3
Commercial name                          : Dolby Digital
Codec ID                                 : A_AC3
Duration                                 : 1 h 58 min
Bit rate mode                            : Constant
Bit rate                                 : 640 kb/s
Channel(s)                               : 6 channels
Channel layout                           : L R C LFE Ls Rs
Sampling rate                            : 48.0 kHz
Frame rate                               : 31.250 FPS (1536 SPF)
Compression mode                         : Lossy
Stream size                              : 541 MiB (1%)
Title                                    : DD 5.1
Language                                 : Spanish
Service kind                             : Complete Main
Default                                  : No
Forced                                   : No
Original source medium                   : Blu-ray

Audio #5
ID                                       : 6
ID in the original source medium         : 4354 (0x1102)
Format                                   : AC-3
Format/Info                              : Audio Coding 3
Commercial name                          : Dolby Digital
Codec ID                                 : A_AC3
Duration                                 : 1 h 58 min
Bit rate mode                            : Constant
Bit rate                                 : 640 kb/s
Channel(s)                               : 6 channels
Channel layout                           : L R C LFE Ls Rs
Sampling rate                            : 48.0 kHz
Frame rate                               : 31.250 FPS (1536 SPF)
Compression mode                         : Lossy
Stream size                              : 541 MiB (1%)
Title                                    : DD 5.1
Language                                 : French
Service kind                             : Complete Main
Default                                  : No
Forced                                   : No
Original source medium                   : Blu-ray

Audio #6
ID                                       : 7
ID in the original source medium         : 4355 (0x1103)
Format                                   : AC-3
Format/Info                              : Audio Coding 3
Commercial name                          : Dolby Digital
Codec ID                                 : A_AC3
Duration                                 : 1 h 58 min
Bit rate mode                            : Constant
Bit rate                                 : 192 kb/s
Channel(s)                               : 2 channels
Channel layout                           : L R
Sampling rate                            : 48.0 kHz
Frame rate                               : 31.250 FPS (1536 SPF)
Compression mode                         : Lossy
Stream size                              : 162 MiB (0%)
Title                                    : DD 2.0
Language                                 : English
Service kind                             : Complete Main
Default                                  : No
Forced                                   : No
Original source medium                   : Blu-ray

Text #1
ID                                       : 8
Format                                   : UTF-8
Codec ID                                 : S_TEXT/UTF8
Codec ID/Info                            : UTF-8 Plain Text
Duration                                 : 1 h 50 min
Bit rate                                 : 31 b/s
Count of elements                        : 918
Stream size                              : 25.5 KiB (0%)
Title                                    : English-SRT
Language                                 : English
Default                                  : Yes
Forced                                   : No

Text #2
ID                                       : 9
ID in the original source medium         : 4768 (0x12A0)
Format                                   : PGS
Muxing mode                              : zlib
Codec ID                                 : S_HDMV/PGS
Codec ID/Info                            : Picture based subtitle format used on BDs/HD-DVDs
Duration                                 : 1 h 52 min
Bit rate                                 : 26.1 kb/s
Count of elements                        : 2352
Stream size                              : 20.9 MiB (0%)
Title                                    : English-PGS
Language                                 : English
Default                                  : No
Forced                                   : No
Original source medium                   : Blu-ray

Text #3
ID                                       : 10
ID in the original source medium         : 4769 (0x12A1)
Format                                   : PGS
Muxing mode                              : zlib
Codec ID                                 : S_HDMV/PGS
Codec ID/Info                            : Picture based subtitle format used on BDs/HD-DVDs
Duration                                 : 1 h 56 min
Bit rate                                 : 18.1 kb/s
Count of elements                        : 1822
Stream size                              : 15.1 MiB (0%)
Title                                    : Spanish-PGS
Language                                 : Spanish
Default                                  : No
Forced                                   : No
Original source medium                   : Blu-ray

Text #4
ID                                       : 11
ID in the original source medium         : 4770 (0x12A2)
Format                                   : PGS
Muxing mode                              : zlib
Codec ID                                 : S_HDMV/PGS
Codec ID/Info                            : Picture based subtitle format used on BDs/HD-DVDs
Duration                                 : 1 h 56 min
Bit rate                                 : 18.7 kb/s
Count of elements                        : 1886
Stream size                              : 15.6 MiB (0%)
Title                                    : French-PGS
Language                                 : French
Default                                  : No
Forced                                   : No
Original source medium                   : Blu-ray

Text #5
ID                                       : 12
ID in the original source medium         : 4771 (0x12A3)
Format                                   : PGS
Muxing mode                              : zlib
Codec ID                                 : S_HDMV/PGS
Codec ID/Info                            : Picture based subtitle format used on BDs/HD-DVDs
Duration                                 : 1 h 56 min
Bit rate                                 : 839 b/s
Count of elements                        : 98
Stream size                              : 719 KiB (0%)
Title                                    : Spanish-FORCED-PGS
Language                                 : Spanish
Default                                  : No
Forced                                   : No
Original source medium                   : Blu-ray

Text #6
ID                                       : 13
ID in the original source medium         : 4772 (0x12A4)
Format                                   : PGS
Muxing mode                              : zlib
Codec ID                                 : S_HDMV/PGS
Codec ID/Info                            : Picture based subtitle format used on BDs/HD-DVDs
Duration                                 : 1 h 56 min
Bit rate                                 : 918 b/s
Count of elements                        : 102
Stream size                              : 786 KiB (0%)
Title                                    : French-FORCED-PGS
Language                                 : French
Default                                  : No
Forced                                   : No
Original source medium                   : Blu-ray

Menu
00:00:00.000                             : en:Chapter 01
00:03:43.765                             : en:Chapter 02
00:11:33.275                             : en:Chapter 03
00:15:29.762                             : en:Chapter 04
00:22:58.377                             : en:Chapter 05
00:30:33.456                             : en:Chapter 06
00:35:44.934                             : en:Chapter 07
00:42:12.738                             : en:Chapter 08
00:47:37.479                             : en:Chapter 09
00:55:02.841                             : en:Chapter 10
00:58:51.402                             : en:Chapter 11
01:03:49.784                             : en:Chapter 12
01:12:24.715                             : en:Chapter 13
01:18:05.931                             : en:Chapter 14
01:25:35.922                             : en:Chapter 15
01:31:39.327                             : en:Chapter 16
01:37:36.600                             : en:Chapter 17
01:42:54.209                             : en:Chapter 18
01:46:20.749                             : en:Chapter 19
01:53:34.641                             : en:Chapter 20




                                                                                                                                                                                                        
                                                                                                                                                                                                                                                                                                                                                                                                                                                                                                                                                                                                                                                                                                                                                                                                                                                        
1312fa4795e337f4e0534a4cfef02d22.zip (122.85 KB, 下载次数: 0)

回复

使用道具 举报

小黑屋|西西论坛

本网站所有资源来自网络,如无意中侵犯了您的权益,请发邮件至 [email protected],立即清除相关链接

GMT+8, 2021-9-26 21:58 , Processed in 0.124840 second(s), 17 queries .

Powered by Discuz! X3.2

© 2001-2013 Comsenz Inc.

快速回复 返回顶部 返回列表