西西论坛

 找回密码
 立即注册
搜索

[4K-原盘] 人皮脸/德州电锯杀人狂前传 Leatherface.2017.2160p.BluRay.REMUX.HEVC.DTS-HD.MA.7.1 ...

[复制链接]
电影首发 发表于 2021-3-22 09:18:30 | 显示全部楼层 |阅读模式
-->
帖子完整标题:人皮脸/德州电锯杀人狂前传 Leatherface.2017.2160p.BluRay.REMUX.HEVC.DTS-HD.MA.7.1-FGT 54.73GB




◎译  名 人皮脸/德州电锯杀人狂前传
◎片  名 Leatherface
◎年  代 2017
◎产  地 美国
◎类  别 惊悚 / 恐怖
◎语  言 英语
◎上映日期 2017-09-21(美国)
◎IMDb评分  5/10 from 19956 users
◎  https://www.imdb.com/title/tt2620590/
◎豆瓣评分 5.5/10 from 4242 users
◎ 
◎片  长 87分钟
◎导  演 亚历山大·布斯蒂罗 Alexandre Bustillo / 朱利安·莫利 Julien Maury
◎编  剧 塞斯·M·舍伍德 Seth M. Sherwood / 金·亨克尔 Kim Henkel / 托比·霍珀 Tobe Hooper
◎主  演 斯蒂芬·多尔夫 Stephen Dorff
       莉莉·泰勒 Lili Taylor
       山姆·斯特莱克 Sam Strike
       凡妮莎·格拉斯 Vanessa Grasse
       菲恩·琼斯 Finn Jones
       萨姆·科尔曼 Sam Coleman
       杰西卡·马德森 Jessica Madsen
       詹姆斯·布鲁尔 James Bloor
       克里斯托弗·亚当森 Christopher Adamson
       迪莫·亚历克谢夫 Dimo Alexiev
       内森·库珀 Nathan Cooper
       德扬·安格洛夫 Dejan Angelov
       鲍里斯·卡巴切夫 Boris Kabakchiev
       沃利扎·比尼夫 Velizar Binev
       朱利安·科斯托夫 Julian Kostov
       伊莲娜·扎雅科娃 Elena Zamyarkova

◎标  签 血腥 | 恐怖 | 惊悚 | 美国 | 暴力 | 犯罪 | 2017 | 悬疑

◎简  介

  该片为1974年的经典恐怖片《德州电锯杀人狂》的前传电影。影片讲述四个精神病犯人从精神病院逃出,并绑架了一名年轻的护士,他们一起踏上了血腥残酷的旅程。追在他们身后的,是一对精神错乱的德州骑警。
Video
ID                                       : 1
ID in the original source medium         : 4113 (0x1011)
Format                                   : HEVC
Format/Info                              : High Efficiency Video Coding
Format profile                           : Main [email protected]@High
HDR format                               : SMPTE ST 2086, HDR10 compatible
Codec ID                                 : V_MPEGH/ISO/HEVC
Duration                                 : 1 h 27 min
Bit rate                                 : 81.6 Mb/s
Width                                    : 3 840 pixels
Height                                   : 2 160 pixels
Display aspect ratio                     : 16:9
Frame rate mode                          : Constant
Frame rate                               : 23.976 (24000/1001/189150) FPS
Color space                              : YUV
Chroma subsampling                       : 4:2:0 (Type 2)
Bit depth                                : 10 bits
Bits/(Pixel*Frame)                       : 0.411
Stream size                              : 49.8 GiB (91%)
Language                                 : English
Default                                  : No
Forced                                   : No
Color range                              : Limited
Color primaries                          : BT.2020
Transfer characteristics                 : PQ
Matrix coefficients                      : BT.2020 non-constant
Mastering display color primaries        : BT.2020
Mastering display luminance              : min: 0.0001 cd/m2, max: 1000 cd/m2
Maximum Content Light Level              : 1000 cd/m2
Maximum Frame-Average Light Level        : 400 cd/m2
Original source medium                   : Blu-ray

Audio #1
ID                                       : 2
ID in the original source medium         : 4354 (0x1102)
Format                                   : DTS XLL
Format/Info                              : Digital Theater Systems
Commercial name                          : DTS-HD Master Audio
Codec ID                                 : A_DTS
Duration                                 : 1 h 27 min
Bit rate mode                            : Variable
Bit rate                                 : 2 661 kb/s
Channel(s)                               : 8 channels
Channel layout                           : C L R LFE Lb Rb Lss Rss
Sampling rate                            : 48.0 kHz
Frame rate                               : 93.750 FPS (512 SPF)
Bit depth                                : 16 bits
Compression mode                         : Lossless
Stream size                              : 1.62 GiB (3%)
Title                                    : DTS-HD MA 7.1
Language                                 : English
Default                                  : Yes
Forced                                   : No
Original source medium                   : Blu-ray

Audio #2
ID                                       : 3
Format                                   : AC-3
Format/Info                              : Audio Coding 3
Commercial name                          : Dolby Digital
Codec ID                                 : A_AC3
Duration                                 : 1 h 27 min
Bit rate mode                            : Constant
Bit rate                                 : 640 kb/s
Channel(s)                               : 6 channels
Channel layout                           : L R C LFE Ls Rs
Sampling rate                            : 48.0 kHz
Frame rate                               : 31.250 FPS (1536 SPF)
Compression mode                         : Lossy
Stream size                              : 400 MiB (1%)
Title                                    : DD 5.1
Language                                 : English
Service kind                             : Complete Main
Default                                  : No
Forced                                   : No

Audio #3
ID                                       : 4
ID in the original source medium         : 4355 (0x1103)
Format                                   : DTS XLL
Format/Info                              : Digital Theater Systems
Commercial name                          : DTS-HD Master Audio
Codec ID                                 : A_DTS
Duration                                 : 1 h 27 min
Bit rate mode                            : Variable
Bit rate                                 : 1 007 kb/s
Channel(s)                               : 2 channels
Channel layout                           : L R
Sampling rate                            : 48.0 kHz
Frame rate                               : 93.750 FPS (512 SPF)
Bit depth                                : 16 bits
Compression mode                         : Lossless
Stream size                              : 629 MiB (1%)
Title                                    : DTS-HD MA 2.0
Language                                 : English
Default                                  : No
Forced                                   : No
Original source medium                   : Blu-ray

Audio #4
ID                                       : 5
ID in the original source medium         : 4352 (0x1100)
Format                                   : DTS XLL
Format/Info                              : Digital Theater Systems
Commercial name                          : DTS-HD Master Audio
Codec ID                                 : A_DTS
Duration                                 : 1 h 27 min
Bit rate mode                            : Variable
Bit rate                                 : 2 695 kb/s
Channel(s)                               : 8 channels
Channel layout                           : C L R LFE Lb Rb Lss Rss
Sampling rate                            : 48.0 kHz
Frame rate                               : 93.750 FPS (512 SPF)
Bit depth                                : 16 bits
Compression mode                         : Lossless
Stream size                              : 1.64 GiB (3%)
Title                                    : DTS-HD MA 7.1
Language                                 : German
Default                                  : No
Forced                                   : No
Original source medium                   : Blu-ray

Audio #5
ID                                       : 6
ID in the original source medium         : 4353 (0x1101)
Format                                   : DTS XLL
Format/Info                              : Digital Theater Systems
Commercial name                          : DTS-HD Master Audio
Codec ID                                 : A_DTS
Duration                                 : 1 h 27 min
Bit rate mode                            : Variable
Bit rate                                 : 1 050 kb/s
Channel(s)                               : 2 channels
Channel layout                           : L R
Sampling rate                            : 48.0 kHz
Frame rate                               : 93.750 FPS (512 SPF)
Bit depth                                : 16 bits
Compression mode                         : Lossless
Stream size                              : 656 MiB (1%)
Title                                    : DTS-HD MA 2.0
Language                                 : German
Default                                  : No
Forced                                   : No
Original source medium                   : Blu-ray

Text #1
ID                                       : 7
Format                                   : UTF-8
Codec ID                                 : S_TEXT/UTF8
Codec ID/Info                            : UTF-8 Plain Text
Duration                                 : 1 h 21 min
Bit rate                                 : 34 b/s
Count of elements                        : 780
Stream size                              : 20.5 KiB (0%)
Title                                    : English-SRT
Language                                 : English
Default                                  : Yes
Forced                                   : No

Text #2
ID                                       : 8
ID in the original source medium         : 4769 (0x12A1)
Format                                   : PGS
Muxing mode                              : zlib
Codec ID                                 : S_HDMV/PGS
Codec ID/Info                            : Picture based subtitle format used on BDs/HD-DVDs
Duration                                 : 1 h 21 min
Bit rate                                 : 19.9 kb/s
Count of elements                        : 1566
Stream size                              : 11.5 MiB (0%)
Title                                    : English-PGS
Language                                 : English
Default                                  : No
Forced                                   : No
Original source medium                   : Blu-ray

Text #3
ID                                       : 9
ID in the original source medium         : 4768 (0x12A0)
Format                                   : PGS
Muxing mode                              : zlib
Codec ID                                 : S_HDMV/PGS
Codec ID/Info                            : Picture based subtitle format used on BDs/HD-DVDs
Duration                                 : 1 h 21 min
Bit rate                                 : 22.8 kb/s
Count of elements                        : 1570
Stream size                              : 13.2 MiB (0%)
Title                                    : German-PGS
Language                                 : German
Default                                  : No
Forced                                   : No
Original source medium                   : Blu-ray

Text #4
ID                                       : 10
ID in the original source medium         : 4770 (0x12A2)
Format                                   : PGS
Muxing mode                              : zlib
Codec ID                                 : S_HDMV/PGS
Codec ID/Info                            : Picture based subtitle format used on BDs/HD-DVDs
Duration                                 : 6 min 13 s
Bit rate                                 : 1 400 b/s
Count of elements                        : 6
Stream size                              : 63.9 KiB (0%)
Title                                    : German-FORCED-PGS
Language                                 : German
Default                                  : No
Forced                                   : No
Original source medium                   : Blu-ray

Menu
00:00:00.000                             : en:Chapter 01
00:04:04.744                             : en:Chapter 02
00:09:10.967                             : en:Chapter 03
00:11:32.400                             : en:Chapter 04
00:19:08.438                             : en:Chapter 05
00:24:30.844                             : en:Chapter 06
00:30:46.928                             : en:Chapter 07
00:36:53.878                             : en:Chapter 08
00:42:26.919                             : en:Chapter 09
00:48:05.465                             : en:Chapter 10
00:53:12.189                             : en:Chapter 11
01:02:23.656                             : en:Chapter 12
01:06:25.022                             : en:Chapter 13
01:11:10.557                             : en:Chapter 14
01:18:04.638                             : en:Chapter 15
01:21:30.302                             : en:Chapter 16
01:23:54.029                             : en:Chapter 17




                                                                                                                                                                                                        
                                                                                                                                                                                                                                                                                                                                                                                                                                                                                                                                                                                                                                                                                                                                                                                                                                                        
db050e7d3560c5149c7c7a53818bb6d8.zip (137.52 KB, 下载次数: 0)

回复

使用道具 举报

小黑屋|西西论坛

本网站所有资源来自网络,如无意中侵犯了您的权益,请发邮件至 [email protected],立即清除相关链接

GMT+8, 2021-9-26 21:46 , Processed in 0.120375 second(s), 17 queries .

Powered by Discuz! X3.2

© 2001-2013 Comsenz Inc.

快速回复 返回顶部 返回列表