西西论坛

 找回密码
 立即注册
搜索

[BD-4K] 财色惊魂 The.Killers.1964.2160p.BluRay.x264.8bit.SDR.DTS-HD.MA.2.0-SWTYBL...

[复制链接]
-->
帖子完整标题:财色惊魂 The.Killers.1964.2160p.BluRay.x264.8bit.SDR.DTS-HD.MA.2.0-SWTYBLZ 52.87GB


[/url]

◎译  名 财色惊魂/Ernest Hemingway's The Killers/凶手
◎片  名 The Killers
◎年  代 1964
◎产  地 美国
◎类  别 剧情 / 悬疑 / 犯罪
◎语  言 英语
◎上映日期 1964-07-07
◎IMDb评分  7.1/10 from 7179 users
◎  
◎豆瓣评分 6.8/10 from 400 users
◎ 
◎片  长 93分钟
◎导  演 唐·希格尔 Don Siegel
◎编  剧 吉恩·L·库恩 Gene L. Coon
◎主  演 李·马文 Lee Marvin
       安吉·迪金森 Angie Dickinson
       约翰·卡萨维蒂 John Cassavetes
       克鲁·古拉格 Clu Gulager
       罗纳德·里根 Ronald Reagan
       唐·希格尔 Don Siegel

◎标  签 美国 | CC | 黑色 | 犯罪 | 1964 | 黑色电影 | DonSiegel | 1960s

◎简  介

  查理(李·马文 Lee Marvin 饰)和李(克鲁·古拉格 Clu Gulager 饰)是拿钱办事的职业杀手,某次,在了结掉了他们的目标强尼(约翰·卡索维茨 John Cassavetes 饰)后,他们对这桩简单的让人简直不敢相信的买卖产生了怀疑。在好奇心的趋势下,查理和李开始调查强尼的底细,得知他曾是一位小有名气的赛车手,却因为赛场上的一起事故而被迫结束了职业生涯。
  
  随着调查的不断深入,一个名为希拉(安吉·迪金森 Angie Dickinson 饰)的女人渐渐浮出了水面,希拉是黑帮老大布朗宁(罗纳德·里根 Ronald Reagan 饰)的情人,同时和被杀的强尼也有着千丝万缕的关联。渐渐地,查理和李发现他们陷入了一个深深的漩涡之中无法自拔。
Video
ID                                       : 1
Format                                   : AVC
Format/Info                              : Advanced Video Codec
Format profile                           :
Format settings                          : CABAC / 5 Ref Frames
Format settings, CABAC                   : Yes
Format settings, Reference frames        : 5 frames
Codec ID                                 : V_MPEG4/ISO/AVC
Duration                                 : 1 h 34 min
Bit rate                                 : 77.7 Mb/s
Width                                    : 3 840 pixels
Height                                   : 2 076 pixels
Display aspect ratio                     : 1.85:1
Frame rate mode                          : Constant
Frame rate                               : 23.976 (24000/1001/189150) FPS
Color space                              : YUV
Chroma subsampling                       : 4:2:0
Bit depth                                : 8 bits
Scan type                                : Progressive
Bits/(Pixel*Frame)                       : 0.406
Stream size                              : 51.4 GiB (98%)
Writing library                          : x264 core 157 r2935 545de2f
Encoding settings                        : cabac=1 / ref=5 / deblock=1:-1:-1 / analyse=0x3:0x113 / me=umh / subme=10 / psy=1 / psy_rd=1.00:0.15 / mixed_ref=1 / me_range=48 / chroma_me=1 / trellis=2 / 8x8dct=1 / cqm=0 / deadzone=21,11 / fast_pskip=1 / chroma_qp_offset=-3 / threads=48 / lookahead_threads=4 / sliced_threads=0 / nr=0 / decimate=0 / interlaced=0 / bluray_compat=0 / constrained_intra=0 / bframes=3 / b_pyramid=2 / b_adapt=2 / b_bias=0 / direct=3 / weightb=1 / open_gop=0 / weightp=2 / keyint=250 / keyint_min=23 / scenecut=40 / intra_refresh=0 / rc_lookahead=50 / rc=crf / mbtree=1 / crf=22.0 / qcomp=0.60 / qpmin=0 / qpmax=69 / qpstep=4 / ip_ratio=1.40 / aq=1:1.00
Default                                  : Yes
Forced                                   : No

Audio #1
ID                                       : 2
ID in the original source medium         : 4353 (0x1101)
Format                                   : DTS XLL
Format/Info                              : Digital Theater Systems
Commercial name                          : DTS-HD Master Audio
Codec ID                                 : A_DTS
Duration                                 : 1 h 34 min
Bit rate mode                            : Variable
Bit rate                                 : 1 175 kb/s
Channel(s)                               : 2 channels
Channel layout                           : L R
Sampling rate                            : 48.0 kHz
Frame rate                               : 93.750 FPS (512 SPF)
Bit depth                                : 24 bits
Compression mode                         : Lossless
Stream size                              : 796 MiB (1%)
Title                                    : DTS-HD MA 2.0
Language                                 : English
Default                                  : Yes
Forced                                   : No
Original source medium                   : Blu-ray

Audio #2
ID                                       : 3
Format                                   : AC-3
Format/Info                              : Audio Coding 3
Commercial name                          : Dolby Digital
Codec ID                                 : A_AC3
Duration                                 : 1 h 34 min
Bit rate mode                            : Constant
Bit rate                                 : 640 kb/s
Channel(s)                               : 2 channels
Channel layout                           : L R
Sampling rate                            : 48.0 kHz
Frame rate                               : 31.250 FPS (1536 SPF)
Compression mode                         : Lossy
Stream size                              : 434 MiB (1%)
Title                                    : DD 2.0
Language                                 : English
Service kind                             : Complete Main
Default                                  : No
Forced                                   : No

Text #1
ID                                       : 4
Format                                   : UTF-8
Codec ID                                 : S_TEXT/UTF8
Codec ID/Info                            : UTF-8 Plain Text
Duration                                 : 1 h 31 min
Bit rate                                 : 63 b/s
Count of elements                        : 1087
Stream size                              : 42.4 KiB (0%)
Title                                    : English-SRT
Language                                 : English
Default                                  : Yes
Forced                                   : No

Text #2
ID                                       : 5
ID in the original source medium         : 4769 (0x12A1)
Format                                   : PGS
Muxing mode                              : zlib
Codec ID                                 : S_HDMV/PGS
Codec ID/Info                            : Picture based subtitle format used on BDs/HD-DVDs
Duration                                 : 1 h 31 min
Bit rate                                 : 34.9 kb/s
Count of elements                        : 2178
Stream size                              : 22.8 MiB (0%)
Title                                    : English-PGS
Language                                 : English
Default                                  : No
Forced                                   : No
Original source medium                   : Blu-ray

Text #3
ID                                       : 6
ID in the original source medium         : 4768 (0x12A0)
Format                                   : PGS
Muxing mode                              : zlib
Codec ID                                 : S_HDMV/PGS
Codec ID/Info                            : Picture based subtitle format used on BDs/HD-DVDs
Duration                                 : 1 h 31 min
Bit rate                                 : 39.8 kb/s
Count of elements                        : 1827
Stream size                              : 26.0 MiB (0%)
Title                                    : German-PGS
Language                                 : German
Default                                  : No
Forced                                   : No
Original source medium                   : Blu-ray

Menu
00:00:00.000                             : en:Chapter 01
00:01:25.460                             : en:Chapter 02
00:06:03.154                             : en:Chapter 03
00:09:09.757                             : en:Chapter 04
00:14:07.596                             : en:Chapter 05
00:20:10.167                             : en:Chapter 06
00:22:32.893                             : en:Chapter 07
00:28:41.845                             : en:Chapter 08
00:38:42.903                             : en:Chapter 09
00:45:33.397                             : en:Chapter 10
00:54:49.911                             : en:Chapter 11
01:03:00.568                             : en:Chapter 12
01:10:25.471                             : en:Chapter 13
01:17:12.085                             : en:Chapter 14
01:25:37.549                             : en:Chapter 15
01:34:01.135                             : en:Chapter 16




                                                                                                                                                                                                        
                                                                                                                                                                                                                                                                                                                                                                                                                                                                                                                                                                                                                                                                                                                                                                                                                                                        
6e3da03ae5acc1fa3860fd318089b0a6.zip (132.92 KB, 下载次数: 0)

回复

使用道具 举报

小黑屋|西西论坛

本网站所有资源来自网络,如无意中侵犯了您的权益,请发邮件至 [email protected],立即清除相关链接

GMT+8, 2021-3-1 23:34 , Processed in 0.089990 second(s), 23 queries .

Powered by Discuz! X3.2

© 2001-2013 Comsenz Inc.

快速回复 返回顶部 返回列表