西西论坛

 找回密码
 立即注册
搜索

[BD-4K] 一代财富/财富世代 Generation.Wealth.2018.2160p.AMZN.WEB-DL.x265.8bit....

[复制链接]
电影首发 发表于 前天 08:25 | 显示全部楼层 |阅读模式
-->
帖子完整标题:一代财富/财富世代 Generation.Wealth.2018.2160p.AMZN.WEB-DL.x265.8bit.SDR.DTS-HD.MA.5.1-SWTYBLZ 9.35GB


[/url]

◎译  名 一代财富/财富世代
◎片  名 Generation Wealth
◎年  代 2018
◎产  地 美国
◎类  别 纪录片
◎语  言 英语
◎上映日期 2018-01-18(圣丹斯电影节) / 2018-07-20(美国)
◎IMDb评分  6.7/10 from 3931 users
◎  
◎豆瓣评分 7.6/10 from 238 users
◎ 
◎导  演 劳伦·格林菲尔德 Lauren Greenfield
◎编  剧 劳伦·格林菲尔德 Lauren Greenfield
◎主  演 劳伦·格林菲尔德 Lauren Greenfield
       布莱特·伊斯顿·埃利斯 Bret Easton Ellis
       罗纳德·里根 Ronald Reagan
       乔治·W· 布什 George W. Bush
       艾伦·格林斯潘 Alan Greenspan
       唐纳德·特朗普 Donald Trump
       查理·辛 Charlie Sheen
       罗宾·利奇 Robin Leach
       金·卡戴珊 Kim Kardashian
       Kacey Jordan
       凯瑟琳·詹纳 Caitlyn Jenner
       肯多尔·詹娜 Kendall Jenner
       克莉丝·詹纳 Kris Jenner
       凯莉·詹娜 Kylie Jenner
       科勒·卡戴珊 Khloe Kardashian
       葛妮·卡戴珊 Kourtney Kardashian
       Robert Kardashian Jr.
       梅拉尼亚·特朗普 Melania Trump

◎标  签 纪录片 | 美国 | 社会 | 2018 | Documentary | 财富 | 社会学 | 美国电影

◎简  介

  该片跨越25年拍摄而成,深入探讨我们集体对于财富和名气的迷恋与追求。

◎获奖情况

  第71届美国编剧工会奖 ?(2019)
  电影奖最佳纪录片剧本(提名) 劳伦·格林菲尔德
  
  第66届美国音效剪辑协会奖 ?(2019)
  金卷轴奖最佳纪录片音效剪辑(提名)
[quote]Video
ID                                       : 1
Format                                   : HEVC
Format/Info                              : High Efficiency Video Coding
Format profile                           : @Main
Codec ID                                 : V_MPEGH/ISO/HEVC
Duration                                 : 1 h 46 min
Bit rate                                 : 8 646 kb/s
Width                                    : 3 840 pixels
Height                                   : 2 160 pixels
Display aspect ratio                     : 16:9
Frame rate mode                          : Constant
Frame rate                               : 23.976 (24000/1001/189150) FPS
Standard                                 : NTSC
Color space                              : YUV
Chroma subsampling                       : 4:2:0
Bit depth                                : 8 bits
Bits/(Pixel*Frame)                       : 0.043
Stream size                              : 6.40 GiB (68%)
Writing library                          : x265 0.0:[Linux][GCC 4.8.2][64 bit] 8bit+10bit+12bit
Encoding settings                        : cpuid=1173503 / frame-threads=2 / wpp / no-pmode / no-pme / psnr / ssim / log-level=2 / csvfn=/apollo/env/YoshiEncodingWorkflowActivitiesLinuxEncoding/var/tmp/2087941741/21a4c578-4b1c-4955-8452-66737fa860c4/15f2faed-8df4-4714-bd7a-819e04efbac3_video_2160p_15000kbps.csv / csv-log-level=2 / input-csp=1 / input-res=3840x2160 / interlace=0 / total-frames=0 / level-idc=50 / high-tier=1 / uhd-bd=0 / ref=5 / no-allow-non-conformance / no-repeat-headers / annexb / no-aud / no-hrd / info / hash=0 / no-temporal-layers / no-open-gop / min-keyint=61 / keyint=120 / bframes=8 / b-adapt=2 / b-pyramid / bframe-bias=0 / rc-lookahead=120 / lookahead-slices=4 / scenecut=0 / no-intra-refresh / ctu=64 / min-cu-size=8 / rect / amp / max-tu-size=32 / tu-inter-depth=4 / tu-intra-depth=4 / limit-tu=4 / rdoq-level=2 / dynamic-rd=0.00 / no-ssim-rd / signhide / tskip / nr-intra=100 / nr-inter=600 / no-constrained-intra / strong-intra-smoothing / max-merge=3 / limit-refs=3 / limit-modes / me=3 / subme=3 / merange=57 / temporal-mvp / weightp / weightb / no-analyze-src-pics / deblock=0:0 / no-sao / no-sao-non-deblock / rd=4 / no-early-skip / no-rskip / no-fast-intra / tskip-fast / no-cu-lossless / b-intra / rdpenalty=0 / psy-rd=4.00 / psy-rdoq=10.00 / no-rd-refine / analysis-reuse-mode=0 / no-lossless / cbqpoffs=0 / crqpoffs=0 / rc=crf / crf=25.0 / qcomp=0.60 / qpstep=1 / stats-write=0 / stats-read=0 / vbv-maxrate=15000 / vbv-bufsize=20000 / vbv-init=0.9 / crf-max=0.0 / crf-min=0.0 / ipratio=1.10 / pbratio=1.00 / aq-mode=0 / aq-strength=1.50 / no-cutree / zone-count=0 / no-strict-cbr / qg-size=32 / rc-grain / qpmax=69 / qpmin=0 / const-vbv / sar=1 / overscan=0 / videoformat=2 / range=0 / colorprim=1 / transfer=1 / colormatrix=1 / chromaloc=0 / display-window=0 / max-cll=0,0 / min-luma=0 / max-luma=255 / log2-max-poc-lsb=8 / vui-timing-info / vui-hrd-info / slices=1 / opt-qp-pps / opt-ref-list-length-pps / no-multi-pass-opt-rps / scenecut-bias=0.05 / no-opt-cu-delta-qp / no-aq-motion / no-hdr / no-hdr-opt / no-dhdr10-opt / analysis-reuse-level=5 / scale-factor=0 / refine-intra=0 / refine-inter=0 / refine-mv=0 / no-limit-sao / ctu-info=0
Default                                  : Yes
Forced                                   : No
Color range                              : Limited
Color primaries                          : BT.709
Transfer characteristics                 : BT.709
Matrix coefficients                      : BT.709

Audio #1
ID                                       : 2
Format                                   : DTS XLL
Format/Info                              : Digital Theater Systems
Commercial name                          : DTS-HD Master Audio
Codec ID                                 : A_DTS
Duration                                 : 1 h 46 min
Bit rate mode                            : Variable
Bit rate                                 : 3 333 kb/s
Channel(s)                               : 6 channels
Channel layout                           : C L R Ls Rs LFE
Sampling rate                            : 48.0 kHz
Frame rate                               : 93.750 FPS (512 SPF)
Bit depth                                : 24 bits
Compression mode                         : Lossless
Delay relative to video                  : 3 ms
Stream size                              : 2.47 GiB (26%)
Title                                    : DTS-HD MA 5.1
Language                                 : English
Default                                  : Yes
Forced                                   : No

Audio #2
ID                                       : 3
Format                                   : E-AC-3
Format/Info                              : Enhanced AC-3
Commercial name                          : Dolby Digital Plus
Codec ID                                 : A_EAC3
Duration                                 : 1 h 46 min
Bit rate mode                            : Constant
Bit rate                                 : 640 kb/s
Channel(s)                               : 6 channels
Channel layout                           : L R C LFE Ls Rs
Sampling rate                            : 48.0 kHz
Frame rate                               : 31.250 FPS (1536 SPF)
Compression mode                         : Lossy
Stream size                              : 485 MiB (5%)
Title                                    : DDP 5.1
Language                                 : English
Service kind                             : Complete Main
Default                                  : No
Forced                                   : No

Text #1
ID                                       : 4
Format                                   : UTF-8
Codec ID                                 : S_TEXT/UTF8
Codec ID/Info                            : UTF-8 Plain Text
Duration                                 : 1 h 42 min
Bit rate                                 : 92 b/s
Count of elements                        : 1602
Stream size                              : 69.4 KiB (0%)
Language                                 : English
Default                                  : Yes
Forced                                   : No

Text #2
ID                                       : 5
Format                                   : UTF-8
Codec ID                                 : S_TEXT/UTF8
Codec ID/Info                            : UTF-8 Plain Text
Duration                                 : 1 h 45 min
Bit rate                                 : 139 b/s
Count of elements                        : 1871
Stream size                              : 108 KiB (0%)
Language                                 : Arabic
Default                                  : No
Forced                                   : No

Text #3
ID                                       : 6
Format                                   : UTF-8
Codec ID                                 : S_TEXT/UTF8
Codec ID/Info                            : UTF-8 Plain Text
Duration                                 : 1 h 45 min
Bit rate                                 : 83 b/s
Count of elements                        : 1813
Stream size                              : 64.2 KiB (0%)
Language                                 : Danish
Default                                  : No
Forced                                   : No

Text #4
ID                                       : 7
Format                                   : UTF-8
Codec ID                                 : S_TEXT/UTF8
Codec ID/Info                            : UTF-8 Plain Text
Duration                                 : 1 h 45 min
Bit rate                                 : 86 b/s
Count of elements                        : 1773
Stream size                              : 66.9 KiB (0%)
Language                                 : German
Default                                  : No
Forced                                   : No

Text #5
ID                                       : 8
Format                                   : UTF-8
Codec ID                                 : S_TEXT/UTF8
Codec ID/Info                            : UTF-8 Plain Text
Duration                                 : 1 h 45 min
Bit rate                                 : 88 b/s
Count of elements                        : 1824
Stream size                              : 68.5 KiB (0%)
Title                                    : Espa?a
Language                                 : Spanish
Default                                  : No
Forced                                   : No

Text #6
ID                                       : 9
Format                                   : UTF-8
Codec ID                                 : S_TEXT/UTF8
Codec ID/Info                            : UTF-8 Plain Text
Duration                                 : 1 h 45 min
Bit rate                                 : 82 b/s
Count of elements                        : 1807
Stream size                              : 64.1 KiB (0%)
Language                                 : Spanish
Default                                  : No
Forced                                   : No

Text #7
ID                                       : 10
Format                                   : UTF-8
Codec ID                                 : S_TEXT/UTF8
Codec ID/Info                            : UTF-8 Plain Text
Duration                                 : 1 h 45 min
Bit rate                                 : 77 b/s
Count of elements                        : 1748
Stream size                              : 59.8 KiB (0%)
Language                                 : Finnish
Default                                  : No
Forced                                   : No

Text #8
ID                                       : 11
Format                                   : UTF-8
Codec ID                                 : S_TEXT/UTF8
Codec ID/Info                            : UTF-8 Plain Text
Duration                                 : 1 h 45 min
Bit rate                                 : 93 b/s
Count of elements                        : 1836
Stream size                              : 72.2 KiB (0%)
Language                                 : French
Default                                  : No
Forced                                   : No

Text #9
ID                                       : 12
Format                                   : UTF-8
Codec ID                                 : S_TEXT/UTF8
Codec ID/Info                            : UTF-8 Plain Text
Duration                                 : 1 h 45 min
Bit rate                                 : 119 b/s
Count of elements                        : 1858
Stream size                              : 92.4 KiB (0%)
Language                                 : Hebrew
Default                                  : No
Forced                                   : No

Text #10
ID                                       : 13
Format                                   : UTF-8
Codec ID                                 : S_TEXT/UTF8
Codec ID/Info                            : UTF-8 Plain Text
Duration                                 : 1 h 45 min
Bit rate                                 : 225 b/s
Count of elements                        : 1874
Stream size                              : 175 KiB (0%)
Language                                 : Hindi
Default                                  : No
Forced                                   : No

Text #11
ID                                       : 14
Format                                   : UTF-8
Codec ID                                 : S_TEXT/UTF8
Codec ID/Info                            : UTF-8 Plain Text
Duration                                 : 1 h 45 min
Bit rate                                 : 90 b/s
Count of elements                        : 1763
Stream size                              : 69.8 KiB (0%)
Language                                 : Indonesian
Default                                  : No
Forced                                   : No

Text #12
ID                                       : 15
Format                                   : UTF-8
Codec ID                                 : S_TEXT/UTF8
Codec ID/Info                            : UTF-8 Plain Text
Duration                                 : 1 h 45 min
Bit rate                                 : 83 b/s
Count of elements                        : 1813
Stream size                              : 64.9 KiB (0%)
Language                                 : Italian
Default                                  : No
Forced                                   : No

Text #13
ID                                       : 16
Format                                   : UTF-8
Codec ID                                 : S_TEXT/UTF8
Codec ID/Info                            : UTF-8 Plain Text
Duration                                 : 1 h 42 min
Bit rate                                 : 93 b/s
Count of elements                        : 1617
Stream size                              : 70.1 KiB (0%)
Language                                 : Japanese
Default                                  : No
Forced                                   : No

Text #14
ID                                       : 17
Format                                   : UTF-8
Codec ID                                 : S_TEXT/UTF8
Codec ID/Info                            : UTF-8 Plain Text
Duration                                 : 1 h 45 min
Bit rate                                 : 105 b/s
Count of elements                        : 1886
Stream size                              : 81.4 KiB (0%)
Language                                 : Korean
Default                                  : No
Forced                                   : No

Text #15
ID                                       : 18
Format                                   : UTF-8
Codec ID                                 : S_TEXT/UTF8
Codec ID/Info                            : UTF-8 Plain Text
Duration                                 : 1 h 45 min
Bit rate                                 : 74 b/s
Count of elements                        : 1779
Stream size                              : 57.5 KiB (0%)
Language                                 : Norwegian Bokmal
Default                                  : No
Forced                                   : No

Text #16
ID                                       : 19
Format                                   : UTF-8
Codec ID                                 : S_TEXT/UTF8
Codec ID/Info                            : UTF-8 Plain Text
Duration                                 : 1 h 45 min
Bit rate                                 : 88 b/s
Count of elements                        : 1775
Stream size                              : 68.7 KiB (0%)
Language                                 : Dutch
Default                                  : No
Forced                                   : No

Text #17
ID                                       : 20
Format                                   : UTF-8
Codec ID                                 : S_TEXT/UTF8
Codec ID/Info                            : UTF-8 Plain Text
Duration                                 : 1 h 45 min
Bit rate                                 : 71 b/s
Count of elements                        : 1736
Stream size                              : 55.3 KiB (0%)
Language                                 : Polish
Default                                  : No
Forced                                   : No

Text #18
ID                                       : 21
Format                                   : UTF-8
Codec ID                                 : S_TEXT/UTF8
Codec ID/Info                            : UTF-8 Plain Text
Duration                                 : 1 h 45 min
Bit rate                                 : 84 b/s
Count of elements                        : 1804
Stream size                              : 65.3 KiB (0%)
Title                                    : Brasil
Language                                 : Portuguese
Default                                  : No
Forced                                   : No

Text #19
ID                                       : 22
Format                                   : UTF-8
Codec ID                                 : S_TEXT/UTF8
Codec ID/Info                            : UTF-8 Plain Text
Duration                                 : 1 h 45 min
Bit rate                                 : 89 b/s
Count of elements                        : 1783
Stream size                              : 68.9 KiB (0%)
Language                                 : Portuguese
Default                                  : No
Forced                                   : No

Text #20
ID                                       : 23
Format                                   : UTF-8
Codec ID                                 : S_TEXT/UTF8
Codec ID/Info                            : UTF-8 Plain Text
Duration                                 : 1 h 45 min
Bit rate                                 : 149 b/s
Count of elements                        : 1866
Stream size                              : 116 KiB (0%)
Language                                 : Russian
Default                                  : No
Forced                                   : No

Text #21
ID                                       : 24
Format                                   : UTF-8
Codec ID                                 : S_TEXT/UTF8
Codec ID/Info                            : UTF-8 Plain Text
Duration                                 : 1 h 45 min
Bit rate                                 : 87 b/s
Count of elements                        : 1611
Stream size                              : 67.6 KiB (0%)
Language                                 : Swedish
Default                                  : No
Forced                                   : No

Text #22
ID                                       : 25
Format                                   : UTF-8
Codec ID                                 : S_TEXT/UTF8
Codec ID/Info                            : UTF-8 Plain Text
Duration                                 : 1 h 42 min
Bit rate                                 : 209 b/s
Count of elements                        : 1647
Stream size                              : 157 KiB (0%)
Language                                 : Thai
Default                                  : No
Forced                                   : No

Text #23
ID                                       : 26
Format                                   : UTF-8
Codec ID                                 : S_TEXT/UTF8
Codec ID/Info                            : UTF-8 Plain Text
Duration                                 : 1 h 45 min
Bit rate                                 : 91 b/s
Count of elements                        : 1762
Stream size                              : 70.3 KiB (0%)
Language                                 : Tagalog
Default                                  : No
Forced                                   : No

Text #24
ID                                       : 27
Format                                   : UTF-8
Codec ID                                 : S_TEXT/UTF8
Codec ID/Info                            : UTF-8 Plain Text
Duration                                 : 1 h 45 min
Bit rate                                 : 89 b/s
Count of elements                        : 1830
Stream size                              : 69.4 KiB (0%)
Language                                 : Turkish
Default                                  : No
Forced                                   : No

Text #25
ID                                       : 28
Format                                   : UTF-8
Codec ID                                 : S_TEXT/UTF8
Codec ID/Info                            : UTF-8 Plain Text
Duration                                 : 1 h 45 min
Bit rate                                 : 75 b/s
Count of elements                        : 1878
Stream size                              : 58.8 KiB (0%)
Title                                    : Simplified
Language                                 : Chinese
Default                                  : No
Forced                                   : No

Text #26
ID                                       : 29
Format                                   : UTF-8
Codec ID                                 : S_TEXT/UTF8
Codec ID/Info                            : UTF-8 Plain Text
Duration                                 : 1 h 45 min
Bit rate                                 : 77 b/s
Count of elements                        : 1876
Stream size                              : 59.6 KiB (0%)
Title                                    : Traditional
Language                                 : Chinese
Default                                  : No
Forced                                   : No

Menu
00:00:00.000                             : en:Studio Logos
00:00:27.000                             : en:Title Sequence
00:03:05.000                             : enhotographer Lauren Greenfield talks about her project inspiration
00:06:16.000                             : enauren revisits past subjects
00:12:08.000                             : enauren reflects on her high school years
00:13:38.000   &

回复

使用道具 举报

小黑屋|西西论坛

本网站所有资源来自网络,如无意中侵犯了您的权益,请发邮件至 [email protected],立即清除相关链接

GMT+8, 2021-2-26 02:24 , Processed in 0.093684 second(s), 20 queries .

Powered by Discuz! X3.2

© 2001-2013 Comsenz Inc.

快速回复 返回顶部 返回列表