西西论坛

 找回密码
 立即注册
搜索

爵士歌手/吾父吾爱吾子 The.Jazz.Singer.1980.720p.BluRay.x264-GUACAMO...

[复制链接]
-->
帖子完整标题:爵士歌手/吾父吾爱吾子 The.Jazz.Singer.1980.720p.BluRay.x264-GUACAMOLE 5.04GB


[/url]

◎译  名 爵士歌手/吾父吾爱吾子/爵士巨星/爵士歌王
◎片  名 The Jazz Singer
◎年  代 1980
◎产  地 美国
◎类  别 剧情 / 爱情 / 音乐
◎语  言 英语
◎上映日期 1980-12-19
◎IMDb评分  5.9/10 from 3886 users
◎  
◎豆瓣评分 /10 from 0 users
◎ 
◎片  长 115 分钟
◎导  演 理查德·弗莱彻 Richard Fleischer
◎编  剧 赫伯特·贝克 Herbert Baker / 史蒂芬·H·布鲁姆 Stephen H. Burum / 山姆森·雷佛森 Samson Raphaelson
◎主  演 劳伦斯·奥利弗 Laurence Olivier
       Michael Pasternak
       保罗·尼古拉斯 Paul Nicholas
       詹姆斯·布斯 James Booth
       埃涅·赫德森 Ernie Hudson
       布里翁·詹姆斯 Brion James
       尼尔·戴蒙德 Neil Diamond
       约翰·威瑟斯朋 John Witherspoon
       詹姆斯·凯伦 James Karen
       迈克·凯林 Mike Kellin
       Walter Janovitz
       露西·阿纳兹 Lucie Arnaz
       Catlin Adams
       大卫·科伯恩 David Coburn
       富兰克林·阿贾伊 Franklyn Ajaye
       Janet Brandt
       Rod Gist
       汉克盖瑞特 Hank Garrett
       Judy Gibson
       Hugh Gillin
       苏利伯维尔 Sully Boyar

◎标  签 音乐 | jazz | 美国电影 | NeilDiamond | 爵士 | LaurenceOlivier | Jazz | 音乐歌舞

◎简  介

  暂无相关剧情介绍
Video
ID                                       : 1
Format                                   : AVC
Format/Info                              : Advanced Video Codec
Format profile                           :
Format settings                          : CABAC / 8 Ref Frames
Format settings, CABAC                   : Yes
Format settings, Reference frames        : 8 frames
Codec ID                                 : V_MPEG4/ISO/AVC
Duration                                 : 1 h 50 min
Bit rate                                 : 5 864 kb/s
Width                                    : 1 280 pixels
Height                                   : 694 pixels
Display aspect ratio                     : 1.85:1
Frame rate mode                          : Constant
Frame rate                               : 25.000 FPS
Color space                              : YUV
Chroma subsampling                       : 4:2:0
Bit depth                                : 8 bits
Scan type                                : Progressive
Bits/(Pixel*Frame)                       : 0.264
Stream size                              : 4.54 GiB (90%)
Writing library                          : x264 core 161 r3048 b86ae3c
Encoding settings                        : cabac=1 / ref=8 / deblock=1:-3:-3 / analyse=0x3:0x133 / me=umh / subme=9 / psy=1 / psy_rd=1.00:0.00 / mixed_ref=1 / me_range=16 / chroma_me=1 / trellis=2 / 8x8dct=1 / cqm=0 / deadzone=21,11 / fast_pskip=0 / chroma_qp_offset=-2 / threads=22 / lookahead_threads=1 / sliced_threads=0 / nr=0 / decimate=1 / interlaced=0 / bluray_compat=0 / constrained_intra=0 / bframes=3 / b_pyramid=2 / b_adapt=2 / b_bias=0 / direct=3 / weightb=1 / open_gop=0 / weightp=2 / keyint=250 / keyint_min=25 / scenecut=40 / intra_refresh=0 / rc_lookahead=60 / rc=crf / mbtree=1 / crf=19.5 / qcomp=0.60 / qpmin=0 / qpmax=69 / qpstep=4 / ip_ratio=1.40 / aq=3:0.60
Default                                  : Yes
Forced                                   : No
Color range                              : Limited
Matrix coefficients                      : BT.709

Audio
ID                                       : 2
Format                                   : AC-3
Format/Info                              : Audio Coding 3
Commercial name                          : Dolby Digital
Codec ID                                 : A_AC3
Duration                                 : 1 h 50 min
Bit rate mode                            : Constant
Bit rate                                 : 640 kb/s
Channel(s)                               : 6 channels
Channel layout                           : L R C LFE Ls Rs
Sampling rate                            : 48.0 kHz
Frame rate                               : 31.250 FPS (1536 SPF)
Compression mode                         : Lossy
Stream size                              : 508 MiB (10%)
Language                                 : English
Service kind                             : Complete Main
Default                                  : Yes
Forced                                   : No

Menu
00:00:00.000                             : en:00:00:00.000
00:15:06.680                             : en:00:15:06.680
00:27:47.520                             : en:00:27:47.520
00:42:29.880                             : en:00:42:29.880
00:56:44.680                             : en:00:56:44.680
01:08:59.200                             : en:01:08:59.200
01:24:14.720                             : en:01:24:14.720
01:37:51.480                             : en:01:37:51.480
01:47:29.600                             : en:01:47:29.600
[/url]



                                                                                                                                                                                                        
                                                                                                                                                                                                                                                                                                                                                                                                                                                                                                                                                                                                                                                                                                                                                                                                                                                        
19178dbd2a6cb527770e965dfc292819.zip (25.9 KB, 下载次数: 0)

回复

使用道具 举报

小黑屋|西西论坛

本网站所有资源来自网络,如无意中侵犯了您的权益,请发邮件至 [email protected],立即清除相关链接

GMT+8, 2021-2-28 21:05 , Processed in 0.093994 second(s), 23 queries .

Powered by Discuz! X3.2

© 2001-2013 Comsenz Inc.

快速回复 返回顶部 返回列表