西西论坛

 找回密码
 立即注册
搜索

裸笼 The.Naked.Cage.1986.720p.BluRay.x264-GUACAMOLE 5.10GB

[复制链接]
电影首发 发表于 2021-2-24 07:30:12 | 显示全部楼层 |阅读模式
-->
帖子完整标题:裸笼 The.Naked.Cage.1986.720p.BluRay.x264-GUACAMOLE 5.10GB


[/url]

◎译  名 裸笼
◎片  名 The Naked Cage
◎年  代 1986
◎产  地 美国
◎类  别 剧情 / 动作
◎语  言 英语
◎上映日期 1986
◎IMDb评分  5.5/10 from 482 users
◎  
◎豆瓣评分 /10 from 0 users
◎ 
◎片  长 97 分钟
◎主  演 莎莉·夏塔克 Shari Shattuck
       安格尔·拓普金斯 Angel Tompkins
       Sheila MacRae
       Faith Minton
       约瑟夫·朗 Joseph Long
       瑞克·艾弗里 Rick Avery
       Larry Gelman
       Lucinda Crosby
       William Bassett
       Nick Benedict
       Chris Anders
       约翰·特莱斯基 John Terlesky
       安吉拉·伊莱恩·吉布斯 Angela Elayne Gibbs

◎标  签 美国 | 犯罪 | 美版蓝光原盘 | 养眼 | StrongR | B | 1986

◎简  介

  (来自机译一名年轻女子被错误定罪一宗银行劫案,并被送到由一个腐败的典狱长管理的最高安全监狱,在那里她被迫忍受各种羞辱。
  
  A young woman is falsely convicted of a bank robbery and sent to a maximum-security prison run by a corrupt warden, where she is forced to suffer various indignities.
Video
ID                                       : 1
Format                                   : AVC
Format/Info                              : Advanced Video Codec
Format profile                           :
Format settings                          : CABAC / 8 Ref Frames
Format settings, CABAC                   : Yes
Format settings, Reference frames        : 8 frames
Codec ID                                 : V_MPEG4/ISO/AVC
Duration                                 : 1 h 36 min
Bit rate                                 : 7 239 kb/s
Width                                    : 1 280 pixels
Height                                   : 694 pixels
Display aspect ratio                     : 1.85:1
Frame rate mode                          : Constant
Frame rate                               : 23.976 (24000/1001/189150) FPS
Color space                              : YUV
Chroma subsampling                       : 4:2:0
Bit depth                                : 8 bits
Scan type                                : Progressive
Bits/(Pixel*Frame)                       : 0.340
Stream size                              : 4.90 GiB (96%)
Writing library                          : x264 core 161 r3048 b86ae3c
Encoding settings                        : cabac=1 / ref=8 / deblock=1:-3:-3 / analyse=0x3:0x133 / me=umh / subme=9 / psy=1 / psy_rd=1.00:0.00 / mixed_ref=1 / me_range=16 / chroma_me=1 / trellis=2 / 8x8dct=1 / cqm=0 / deadzone=21,11 / fast_pskip=0 / chroma_qp_offset=-2 / threads=22 / lookahead_threads=1 / sliced_threads=0 / nr=0 / decimate=1 / interlaced=0 / bluray_compat=0 / constrained_intra=0 / bframes=3 / b_pyramid=2 / b_adapt=2 / b_bias=0 / direct=3 / weightb=1 / open_gop=0 / weightp=2 / keyint=250 / keyint_min=23 / scenecut=40 / intra_refresh=0 / rc_lookahead=60 / rc=crf / mbtree=1 / crf=17.5 / qcomp=0.60 / qpmin=0 / qpmax=69 / qpstep=4 / ip_ratio=1.40 / aq=3:0.60
Default                                  : Yes
Forced                                   : No
Color range                              : Limited
Matrix coefficients                      : BT.709

Audio
ID                                       : 2
Format                                   : FLAC
Format/Info                              : Free Lossless Audio Codec
Codec ID                                 : A_FLAC
Duration                                 : 1 h 36 min
Bit rate mode                            : Variable
Bit rate                                 : 289 kb/s
Channel(s)                               : 2 channels
Channel layout                           : L R
Sampling rate                            : 48.0 kHz
Frame rate                               : 11.719 FPS (4096 SPF)
Bit depth                                : 16 bits
Compression mode                         : Lossless
Stream size                              : 200 MiB (4%)
Writing library                          : libFLAC 1.2.1 (UTC 2007-09-17)
Language                                 : English
Default                                  : Yes
Forced                                   : No

Text
ID                                       : 3
Format                                   : PGS
Muxing mode                              : zlib
Codec ID                                 : S_HDMV/PGS
Codec ID/Info                            : Picture based subtitle format used on BDs/HD-DVDs
Duration                                 : 1 h 34 min
Bit rate                                 : 35.8 kb/s
Count of elements                        : 1873
Stream size                              : 24.2 MiB (0%)
Title                                    : Vobsubs
Language                                 : German
Default                                  : No
Forced                                   : No

Menu
00:00:00.000                             : en:00:00:00.000
00:07:38.667                             : en:00:07:38.667
00:16:09.844                             : en:00:16:09.844
00:24:10.616                             : en:00:24:10.616
00:34:00.789                             : en:00:34:00.789
00:40:27.884                             : en:00:40:27.884
00:48:12.014                             : en:00:48:12.014
00:57:43.251                             : en:00:57:43.251
01:04:33.578                             : en:01:04:33.578
01:11:50.765                             : en:01:11:50.765
01:19:03.948                             : en:01:19:03.948
01:27:57.272                             : en:01:27:57.272
[/url]



                                                                                                                                                                                                        
                                                                                                                                                                                                                                                                                                                                                                                                                                                                                                                                                                                                                                                                                                                                                                                                                                                        
245aa60062048151a6f3fab7d964ebd1.zip (26.21 KB, 下载次数: 0)

回复

使用道具 举报

小黑屋|西西论坛

本网站所有资源来自网络,如无意中侵犯了您的权益,请发邮件至 [email protected],立即清除相关链接

GMT+8, 2021-3-9 09:20 , Processed in 0.098092 second(s), 23 queries .

Powered by Discuz! X3.2

© 2001-2013 Comsenz Inc.

快速回复 返回顶部 返回列表