西西论坛

 找回密码
 立即注册
搜索

燃烧的佛像人 The.Burning.Buddha.Man.2013.720p.BluRay.x264-ORBS 2.18GB

[复制链接]
电影首发 发表于 2021-2-20 16:05:51 | 显示全部楼层 |阅读模式
帖子完整标题:燃烧的佛像人 The.Burning.Buddha.Man.2013.720p.BluRay.x264-ORBS 2.18GB


[/url]

◎译  名 燃烧的佛像人/The Burning Buddha Man
◎片  名 燃える仏像人間
◎年  代 2013
◎产  地 日本
◎类  别 动画
◎语  言 日语
◎上映日期 2013-05-18(日本)
◎IMDb评分  6.4/10 from 62 users
◎片  长 80分钟
◎导  演 宇治茶 Ujicha
◎编  剧 宇治茶 Ujicha
◎主  演 井口裕香 Yuka Iguchi
       寺田农 Minori Terada
       原知佐子 Chisako Hara
       星光子 Mitsuko Hoshi

◎标  签 日本 | 日本动画 | 动画 | 宇治茶 | 日本电影 | アニメ | 電影院 | 動畫

◎简  介

  暂无相关剧情介绍
Video
ID                                       : 1
Format                                   : AVC
Format/Info                              : Advanced Video Codec
Format profile                           :
Format settings                          : CABAC / 9 Ref Frames
Format settings, CABAC                   : Yes
Format settings, Reference frames        : 9 frames
Codec ID                                 : V_MPEG4/ISO/AVC
Duration                                 : 1 h 19 min
Bit rate                                 : 3 277 kb/s
Width                                    : 1 280 pixels
Height                                   : 720 pixels
Display aspect ratio                     : 16:9
Frame rate mode                          : Constant
Frame rate                               : 23.976 (24000/1001/189150) FPS
Color space                              : YUV
Chroma subsampling                       : 4:2:0
Bit depth                                : 8 bits
Scan type                                : Progressive
Bits/(Pixel*Frame)                       : 0.148
Stream size                              : 1.82 GiB (83%)
Writing library                          : x264 core 161 r3043 59c0609
Encoding settings                        : cabac=1 / ref=9 / deblock=1:-3:-3 / analyse=0x3:0x133 / me=umh / subme=10 / psy=1 / psy_rd=1.20:0.00 / mixed_ref=1 / me_range=24 / chroma_me=1 / trellis=2 / 8x8dct=1 / cqm=0 / deadzone=21,11 / fast_pskip=0 / chroma_qp_offset=-2 / threads=22 / lookahead_threads=3 / sliced_threads=0 / nr=0 / decimate=0 / interlaced=0 / bluray_compat=0 / constrained_intra=0 / bframes=8 / b_pyramid=2 / b_adapt=2 / b_bias=0 / direct=3 / weightb=1 / open_gop=0 / weightp=2 / keyint=250 / keyint_min=23 / scenecut=40 / intra_refresh=0 / rc_lookahead=60 / rc=crf / mbtree=1 / crf=16.0 / qcomp=0.60 / qpmin=0 / qpmax=69 / qpstep=4 / ip_ratio=1.40 / aq=3:0.90
Default                                  : Yes
Forced                                   : No
Color range                              : Limited
Matrix coefficients                      : BT.709

Audio
ID                                       : 2
Format                                   : FLAC
Format/Info                              : Free Lossless Audio Codec
Codec ID                                 : A_FLAC
Duration                                 : 1 h 19 min
Bit rate mode                            : Variable
Bit rate                                 : 632 kb/s
Channel(s)                               : 2 channels
Channel layout                           : L R
Sampling rate                            : 48.0 kHz
Frame rate                               : 11.719 FPS (4096 SPF)
Bit depth                                : 16 bits
Compression mode                         : Lossless
Stream size                              : 360 MiB (16%)
Writing library                          : libFLAC 1.3.2 (UTC 2017-01-01)
Language                                 : Japanese
Default                                  : Yes
Forced                                   : No

Text #1
ID                                       : 3
Format                                   : UTF-8
Codec ID                                 : S_TEXT/UTF8
Codec ID/Info                            : UTF-8 Plain Text
Duration                                 : 1 h 14 min
Bit rate                                 : 32 b/s
Count of elements                        : 614
Stream size                              : 17.8 KiB (0%)
Title                                    : English (Forced)
Language                                 : English
Default                                  : Yes
Forced                                   : Yes

Text #2
ID                                       : 4
Format                                   : PGS
Muxing mode                              : zlib
Codec ID                                 : S_HDMV/PGS
Codec ID/Info                            : Picture based subtitle format used on BDs/HD-DVDs
Duration                                 : 1 h 14 min
Bit rate                                 : 30.3 kb/s
Count of elements                        : 1227
Stream size                              : 16.2 MiB (1%)
Language                                 : English
Default                                  : No
Forced                                   : No

Menu
00:00:00.000                             : en:Chapter 01
00:02:31.276                             : en:Chapter 02
00:11:27.979                             : en:Chapter 03
00:20:24.098                             : en:Chapter 04
00:24:48.153                             : en:Chapter 05
00:35:07.939                             : en:Chapter 06
00:40:17.915                             : en:Chapter 07
00:49:29.383                             : en:Chapter 08
00:55:23.570                             : en:Chapter 09
01:01:08.498                             : en:Chapter 10
01:10:58.171                             : en:Chapter 11
01:15:43.289                             : en:Chapter 12
[/url]



                                                                                                                                                                                                        
                                                                                                                                                                                                                                                                                                                                                                                                                                                                                                                                                                                                                                                                                                                                                                                                                                                        
3586deff7c2c6d63be98b4ffd9367466.zip (22.53 KB, 下载次数: 0)

回复

使用道具 举报

小黑屋|西西论坛

本网站所有资源来自网络,如无意中侵犯了您的权益,请发邮件至 [email protected],立即清除相关链接

GMT+8, 2021-3-9 08:23 , Processed in 0.106614 second(s), 23 queries .

Powered by Discuz! X3.2

© 2001-2013 Comsenz Inc.

快速回复 返回顶部 返回列表