西西论坛

 找回密码
 立即注册
搜索

棕榈泉/恋爱假期无限Loop Palm.Springs.2020.720p.BluRay.x264-USURY 2.30GB

[复制链接]
电影首发 发表于 2021-2-17 21:48:49 | 显示全部楼层 |阅读模式
-->
帖子完整标题:棕榈泉/恋爱假期无限Loop Palm.Springs.2020.720p.BluRay.x264-USURY 2.30GB


[/url]

◎译  名 棕榈泉/恋爱假期无限Loop(港)/棕榈泉不思议(台)
◎片  名 Palm Springs
◎年  代 2020
◎产  地 美国
◎类  别 喜剧 / 爱情
◎语  言 英语
◎上映日期 2020-01-26(圣丹斯电影节) / 2020-07-10(美国)
◎IMDb评分  7.4/10 from 79985 users
◎  
◎豆瓣评分 6.7/10 from 8261 users
◎ 
◎片  长 90分钟
◎导  演 马克斯·巴尔巴科夫 Max Barbakow
◎编  剧 安迪·塞拉 Andy Siara / 马克斯·巴尔巴科夫 Max Barbakow
◎主  演 安迪·萨姆伯格 Andy Samberg
       克里斯汀·米利欧缇 Cristin Milioti
       卡米拉·门德斯 Camila Mendes
       泰勒·霍奇林 Tyler Hoechlin
       J·K·西蒙斯 J.K. Simmons
       杰奎琳·奥拉德丝 Jacqueline Obradors
       彼得·盖勒 Peter Gallagher
       戴尔·迪奇 Dale Dickey
       梅瑞迪斯·海格纳 Meredith Hagner
       朱恩·斯奎布 June Squibb
       吴育刚 Chris Pang
       莉莉·博塞尔 Lilli Birdsell
       康纳·欧麦利 Conner O'malley
       马克·库布尔 Mark Kubr
       汤加伊·基里萨 Tongayi Chirisa
       大卫·哈奇森 David Hutchison
       David Reed
       杰娜·弗里德曼 Jena Friedman

◎标  签 喜剧 | 爱情 | 美国 | 2020 | 美国电影 | 电影 | 婚礼 | 圣丹斯

◎简  介

  讲述Sarah(Cristin Milioti饰)在一场婚礼上认识Nyles(Andy Samberg饰)后,晚上两人约会时女主因故而被吸入一个传送门,醒来后Sarah发现一直被困在婚礼当天。

◎获奖情况

  第78届金球奖 ?(2021)
  电影类最佳音乐/喜剧片(提名)
  电影类音乐/喜剧片最佳男主角(提名) 安迪·萨姆伯格
  
  第36届圣丹斯电影节 ?(2020)
  评审团大奖剧情片(提名) 马克斯·巴尔巴科夫
  
  第25届金卫星奖 ?(2021)
  电影部门最佳喜剧/音乐片(提名)
  电影部门喜剧/音乐片最佳男主角(提名) 安迪·萨姆伯格
  电影部门最佳原创剧本(提名) 安迪·塞拉
  
  第5届亚特兰大影评人协会奖 ?(2020)
  十佳影片(提名)
Video
ID                                       : 1
Format                                   : AVC
Format/Info                              : Advanced Video Codec
Format profile                           :
Format settings                          : CABAC / 12 Ref Frames
Format settings, CABAC                   : Yes
Format settings, Reference frames        : 12 frames
Codec ID                                 : V_MPEG4/ISO/AVC
Duration                                 : 1 h 29 min
Bit rate                                 : 3 012 kb/s
Width                                    : 1 280 pixels
Height                                   : 536 pixels
Display aspect ratio                     : 2.40:1
Frame rate mode                          : Constant
Frame rate                               : 24.000 FPS
Color space                              : YUV
Chroma subsampling                       : 4:2:0
Bit depth                                : 8 bits
Scan type                                : Progressive
Bits/(Pixel*Frame)                       : 0.183
Stream size                              : 1.89 GiB (82%)
Writing library                          : x264 core 161 r3027 4121277
Encoding settings                        : cabac=1 / ref=12 / deblock=1:-3:-3 / analyse=0x3:0x133 / me=umh / subme=10 / psy=1 / psy_rd=1.00:0.15 / mixed_ref=1 / me_range=24 / chroma_me=1 / trellis=2 / 8x8dct=1 / cqm=0 / deadzone=21,11 / fast_pskip=1 / chroma_qp_offset=-3 / threads=17 / lookahead_threads=2 / sliced_threads=0 / nr=0 / decimate=1 / interlaced=0 / bluray_compat=0 / constrained_intra=0 / bframes=8 / b_pyramid=2 / b_adapt=2 / b_bias=0 / direct=3 / weightb=1 / open_gop=0 / weightp=2 / keyint=250 / keyint_min=24 / scenecut=40 / intra_refresh=0 / rc_lookahead=60 / rc=crf / mbtree=1 / crf=17.0 / qcomp=0.60 / qpmin=0 / qpmax=69 / qpstep=4 / ip_ratio=1.40 / aq=3:0.70
Language                                 : English
Default                                  : Yes
Forced                                   : No

Audio
ID                                       : 2
Format                                   : AC-3
Format/Info                              : Audio Coding 3
Commercial name                          : Dolby Digital
Codec ID                                 : A_AC3
Duration                                 : 1 h 29 min
Bit rate mode                            : Constant
Bit rate                                 : 640 kb/s
Channel(s)                               : 6 channels
Channel layout                           : L R C LFE Ls Rs
Sampling rate                            : 48.0 kHz
Frame rate                               : 31.250 FPS (1536 SPF)
Compression mode                         : Lossy
Stream size                              : 412 MiB (17%)
Language                                 : English
Service kind                             : Complete Main
Default                                  : Yes
Forced                                   : No

Text #1
ID                                       : 3
Format                                   : UTF-8
Codec ID                                 : S_TEXT/UTF8
Codec ID/Info                            : UTF-8 Plain Text
Duration                                 : 1 h 29 min
Bit rate                                 : 67 b/s
Count of elements                        : 1558
Stream size                              : 44.4 KiB (0%)
Title                                    : English
Language                                 : English
Default                                  : No
Forced                                   : No

Text #2
ID                                       : 4
Format                                   : UTF-8
Codec ID                                 : S_TEXT/UTF8
Codec ID/Info                            : UTF-8 Plain Text
Duration                                 : 1 h 29 min
Bit rate                                 : 73 b/s
Count of elements                        : 1802
Stream size                              : 48.5 KiB (0%)
Title                                    : English SDH
Language                                 : English
Default                                  : No
Forced                                   : No

Text #3
ID                                       : 5
Format                                   : UTF-8
Codec ID                                 : S_TEXT/UTF8
Codec ID/Info                            : UTF-8 Plain Text
Duration                                 : 1 h 29 min
Bit rate                                 : 74 b/s
Count of elements                        : 1920
Stream size                              : 49.3 KiB (0%)
Title                                    : Spanish SDH
Language                                 : Spanish
Default                                  : No
Forced                                   : No

Text #4
ID                                       : 6
Format                                   : PGS
Muxing mode                              : zlib
Codec ID                                 : S_HDMV/PGS
Codec ID/Info                            : Picture based subtitle format used on BDs/HD-DVDs
Duration                                 : 1 h 24 min
Bit rate                                 : 4 519 b/s
Count of elements                        : 1499
Stream size                              : 2.74 MiB (0%)
Title                                    : Swedish
Language                                 : Swedish
Default                                  : No
Forced                                   : No

Menu
00:00:00.000                             : en:00:00:00.000
00:09:48.000                             : en:00:09:48.000
00:19:12.500                             : en:00:19:12.500
00:28:15.000                             : en:00:28:15.000
00:41:01.000                             : en:00:41:01.000
00:47:37.000                             : en:00:47:37.000
00:59:52.500                             : en:00:59:52.500
01:12:17.500                             : en:01:12:17.500
01:23:39.500                             : en:01:23:39.500
[/url]



                                                                                                                                                                                                        
                                                                                                                                                                                                                                                                                                                                                                                                                                                                                                                                                                                                                                                                                                                                                                                                                                                        
bad166c4038e9178b16c315cbc7c620d.zip (23.67 KB, 下载次数: 0)

回复

使用道具 举报

小黑屋|西西论坛

本网站所有资源来自网络,如无意中侵犯了您的权益,请发邮件至 [email protected],立即清除相关链接

GMT+8, 2021-2-28 20:35 , Processed in 0.247377 second(s), 23 queries .

Powered by Discuz! X3.2

© 2001-2013 Comsenz Inc.

快速回复 返回顶部 返回列表