西西论坛

 找回密码
 立即注册
搜索

神啊来救救我吧/神来救救我吧 Save.Yourselves.2020.1080p.BluRay.x2...

[复制链接]
电影首发 发表于 2021-2-12 12:43:31 | 显示全部楼层 |阅读模式
-->
帖子完整标题:神啊来救救我吧/神来救救我吧 Save.Yourselves.2020.1080p.BluRay.x264-VETO 10.21GB


[/url]

◎译  名 神啊来救救我吧/神来救救我吧
◎片  名 Save Yourselves!
◎年  代 2020
◎产  地 美国
◎类  别 喜剧 / 科幻
◎语  言 英语
◎上映日期 2020-01-25(圣丹斯电影节) / 2020-10-02(美国)
◎IMDb评分  5.7/10 from 3519 users
◎  
◎豆瓣评分 5.0/10 from 397 users
◎ 
◎片  长 93分钟
◎导  演 亚历克斯·休斯顿·费希尔 Alex Huston Fischer / 埃莉诺·威尔逊 Eleanor Wilson
◎编  剧 亚历克斯·休斯顿·费希尔 Alex Huston Fischer / 埃莉诺·威尔逊 Eleanor Wilson
◎主  演 苏妮特·玛尼 Sunita Mani
       约翰·雷诺兹 John Reynolds
       本·辛克莱尔 Ben Sinclair
       约翰·厄尔利 John Early
       乔·费尔斯通 Jo Firestone
       加里·理查德森 Gary Richardson
       乔安娜·戴 Johanna Day
       泽诺比娅·谢罗夫 Zenobia Shroff
       艾米·塞德丽丝 Amy Sedaris

◎标  签 科幻 | 喜剧 | 美国 | 荒诞 | 2020 | 奇幻 | 非常之差... | 剧情

◎简  介

  一对年轻的布鲁克林夫妇前往北部,他们断开了手机,与自己重新建立联系。由于切断了电子设备,他们错过了地球正遭受攻击的消息。

◎获奖情况

  第36届圣丹斯电影节 ?(2020)
  评审团大奖剧情片(提名) EleanorWilson?/?亚历克斯·休斯顿·费希尔
Video
ID                                       : 1
Format                                   : AVC
Format/Info                              : Advanced Video Codec
Format profile                           :
Format settings                          : CABAC / 4 Ref Frames
Format settings, CABAC                   : Yes
Format settings, Reference frames        : 4 frames
Codec ID                                 : V_MPEG4/ISO/AVC
Duration                                 : 1 h 33 min
Bit rate                                 : 12.2 Mb/s
Width                                    : 1 920 pixels
Height                                   : 1 040 pixels
Display aspect ratio                     : 1.85:1
Frame rate mode                          : Constant
Frame rate                               : 23.976 (24000/1001/189150) FPS
Color space                              : YUV
Chroma subsampling                       : 4:2:0
Bit depth                                : 8 bits
Scan type                                : Progressive
Bits/(Pixel*Frame)                       : 0.255
Stream size                              : 8.00 GiB (78%)
Writing library                          : x264 core 161 r3044 a7e2c6a
Encoding settings                        : cabac=1 / ref=4 / deblock=1:-3:-3 / analyse=0x3:0x133 / me=umh / subme=9 / psy=1 / psy_rd=1.00:0.00 / mixed_ref=1 / me_range=16 / chroma_me=1 / trellis=2 / 8x8dct=1 / cqm=0 / deadzone=21,11 / fast_pskip=0 / chroma_qp_offset=-2 / threads=24 / lookahead_threads=2 / sliced_threads=0 / nr=0 / decimate=0 / interlaced=0 / bluray_compat=0 / constrained_intra=0 / bframes=3 / b_pyramid=2 / b_adapt=2 / b_bias=0 / direct=3 / weightb=1 / open_gop=0 / weightp=2 / keyint=250 / keyint_min=23 / scenecut=40 / intra_refresh=0 / rc=crf / mbtree=0 / crf=19.0 / qcomp=0.60 / qpmin=0 / qpmax=69 / qpstep=4 / ip_ratio=1.40 / pb_ratio=1.30 / aq=3:0.70
Language                                 : English
Default                                  : Yes
Forced                                   : No
Color range                              : Limited
Matrix coefficients                      : BT.709

Audio
ID                                       : 2
Format                                   : DTS XLL
Format/Info                              : Digital Theater Systems
Commercial name                          : DTS-HD Master Audio
Codec ID                                 : A_DTS
Duration                                 : 1 h 33 min
Bit rate mode                            : Variable
Bit rate                                 : 3 279 kb/s
Channel(s)                               : 6 channels
Channel layout                           : C L R Ls Rs LFE
Sampling rate                            : 48.0 kHz
Frame rate                               : 93.750 FPS (512 SPF)
Bit depth                                : 24 bits
Compression mode                         : Lossless
Stream size                              : 2.15 GiB (21%)
Language                                 : English
Default                                  : Yes
Forced                                   : No

Text #1
ID                                       : 3
Format                                   : UTF-8
Muxing mode                              : zlib
Codec ID                                 : S_TEXT/UTF8
Codec ID/Info                            : UTF-8 Plain Text
Duration                                 : 1 h 32 min
Bit rate                                 : 66 b/s
Count of elements                        : 1563
Stream size                              : 44.8 KiB (0%)
Title                                    : English (SRT)
Language                                 : English
Default                                  : No
Forced                                   : No

Text #2
ID                                       : 4
Format                                   : UTF-8
Muxing mode                              : zlib
Codec ID                                 : S_TEXT/UTF8
Codec ID/Info                            : UTF-8 Plain Text
Duration                                 : 1 h 32 min
Bit rate                                 : 71 b/s
Count of elements                        : 1719
Stream size                              : 48.6 KiB (0%)
Title                                    : English (SDH SRT)
Language                                 : English
Default                                  : No
Forced                                   : No

Text #3
ID                                       : 5
Format                                   : PGS
Codec ID                                 : S_HDMV/PGS
Codec ID/Info                            : Picture based subtitle format used on BDs/HD-DVDs
Duration                                 : 1 h 32 min
Bit rate                                 : 48.2 kb/s
Count of elements                        : 3438
Stream size                              : 31.8 MiB (0%)
Title                                    : English (SDH)
Language                                 : English
Default                                  : No
Forced                                   : No

Text #4
ID                                       : 6
Format                                   : PGS
Codec ID                                 : S_HDMV/PGS
Codec ID/Info                            : Picture based subtitle format used on BDs/HD-DVDs
Duration                                 : 1 h 33 min
Bit rate                                 : 34.3 kb/s
Count of elements                        : 2740
Stream size                              : 22.8 MiB (0%)
Title                                    : Spanish
Language                                 : Spanish
Default                                  : No
Forced                                   : No

Menu
00:00:00.000                             : en:Chapter 01
00:05:14.064                             : en:Chapter 02
00:10:38.096                             : en:Chapter 03
00:14:28.701                             : en:Chapter 04
00:20:34.567                             : en:Chapter 05
00:23:35.873                             : en:Chapter 06
00:28:41.595                             : en:Chapter 07
00:31:34.976                             : en:Chapter 08
00:37:46.514                             : en:Chapter 09
00:42:27.795                             : en:Chapter 10
00:47:54.288                             : en:Chapter 11
00:52:49.792                             : en:Chapter 12
00:57:17.643                             : en:Chapter 13
00:59:33.737                             : en:Chapter 14
01:04:16.770                             : en:Chapter 15
01:10:22.468                             : en:Chapter 16
01:15:38.784                             : en:Chapter 17
01:22:55.888                             : en:Chapter 18
01:25:56.693                             : en:Chapter 19
01:30:59.704                             : en:Chapter 20
[/url]



                                                                                                                                                                                                        
                                                                                                                                                                                                                                                                                                                                                                                                                                                                                                                                                                                                                                                                                                                                                                                                                                                        
444b10a0732069502f65e69d4073e8db.zip (51.75 KB, 下载次数: 0)

回复

使用道具 举报

小黑屋|西西论坛

本网站所有资源来自网络,如无意中侵犯了您的权益,请发邮件至 [email protected],立即清除相关链接

GMT+8, 2021-3-2 03:08 , Processed in 0.092513 second(s), 23 queries .

Powered by Discuz! X3.2

© 2001-2013 Comsenz Inc.

快速回复 返回顶部 返回列表