西西论坛

 找回密码
 立即注册
搜索

错会半生/不爱钢琴师 Lara.2019.1080p.BluRay.x264-USURY 6.11GB

[复制链接]
电影首发 发表于 2021-2-11 15:29:24 | 显示全部楼层 |阅读模式
-->
帖子完整标题:错会半生/不爱钢琴师 Lara.2019.1080p.BluRay.x264-USURY 6.11GB


[/url]

◎译  名 错会半生/不爱钢琴师(台)/拉腊
◎片  名 Lara
◎年  代 2019
◎产  地 德国
◎类  别 剧情
◎语  言 德语
◎上映日期 2019-06-30(卡罗维发利电影节) / 2019-11-07(德国)
◎IMDb评分  7.1/10 from 1362 users
◎  
◎豆瓣评分 7.4/10 from 1336 users
◎ 
◎片  长 96分钟
◎导  演 扬·奥勒·格斯特 Jan Ole Gerster
◎编  剧 扬·奥勒·格斯特 Jan Ole Gerster
◎主  演 科琳娜·哈弗奇 Corinna Harfouch
       汤姆·希林 Tom Schilling
       希尔德加德·斯罗德 Hildegard Schroedter
       Susanne Bredeh?ft
       斯特芬·金斯 Steffen Jürgens

◎标  签 德国 | 家庭 | 剧情 | 德国电影 | 2019 | 汤姆希林 | 德國 | TomSchilling

◎简  介

  曾被誉为天才钢琴手的拉娜,为了相夫教子放弃了大好前程,却没料到此后人生却不如计画中的顺利。在六十岁生日当天,也是她的儿子维特首场钢琴独奏会,当发现儿子没有邀请她,反而离异多年的老公和新女友被受邀前往时,她暗自准备一场行动,让这个寻常却又特别的日子,有个出人意料的开始,而随著独奏会时间逼近,也慢慢揭露三人之间多年未解的伤痕。

◎获奖情况

  第54届卡罗维发利国际电影节 ?(2019)
  水晶地球仪奖评委会特别奖 扬·奥勒·格斯特
  水晶地球仪奖最佳女演员 科琳娜·哈弗奇
  水晶地球仪奖(提名) 扬·奥勒·格斯特
  宗教人道奖 扬·奥勒·格斯特
Video
ID                                       : 1
Format                                   : AVC
Format/Info                              : Advanced Video Codec
Format profile                           :
Format settings                          : CABAC / 5 Ref Frames
Format settings, CABAC                   : Yes
Format settings, Reference frames        : 5 frames
Codec ID                                 : V_MPEG4/ISO/AVC
Duration                                 : 1 h 38 min
Bit rate                                 : 5 318 kb/s
Width                                    : 1 920 pixels
Height                                   : 804 pixels
Display aspect ratio                     : 2.40:1
Frame rate mode                          : Constant
Frame rate                               : 24.000 FPS
Color space                              : YUV
Chroma subsampling                       : 4:2:0
Bit depth                                : 8 bits
Scan type                                : Progressive
Bits/(Pixel*Frame)                       : 0.144
Stream size                              : 3.66 GiB (60%)
Writing library                          : x264 core 161 r3027 4121277
Encoding settings                        : cabac=1 / ref=5 / deblock=1:-3:-3 / analyse=0x3:0x133 / me=umh / subme=10 / psy=1 / psy_rd=1.00:0.15 / mixed_ref=1 / me_range=24 / chroma_me=1 / trellis=2 / 8x8dct=1 / cqm=0 / deadzone=21,11 / fast_pskip=1 / chroma_qp_offset=-3 / threads=18 / lookahead_threads=3 / sliced_threads=0 / nr=0 / decimate=1 / interlaced=0 / bluray_compat=0 / constrained_intra=0 / bframes=8 / b_pyramid=2 / b_adapt=2 / b_bias=0 / direct=3 / weightb=1 / open_gop=0 / weightp=2 / keyint=250 / keyint_min=24 / scenecut=40 / intra_refresh=0 / rc_lookahead=60 / rc=crf / mbtree=1 / crf=14.0 / qcomp=0.60 / qpmin=0 / qpmax=69 / qpstep=4 / ip_ratio=1.40 / aq=3:0.70
Language                                 : English
Default                                  : Yes
Forced                                   : No

Audio
ID                                       : 2
Format                                   : DTS XLL
Format/Info                              : Digital Theater Systems
Commercial name                          : DTS-HD Master Audio
Codec ID                                 : A_DTS
Duration                                 : 1 h 38 min
Bit rate mode                            : Variable
Bit rate                                 : 3 565 kb/s
Channel(s)                               : 6 channels
Channel layout                           : C L R Ls Rs LFE
Sampling rate                            : 48.0 kHz
Frame rate                               : 93.750 FPS (512 SPF)
Bit depth                                : 24 bits
Compression mode                         : Lossless
Stream size                              : 2.45 GiB (40%)
Language                                 : German
Default                                  : Yes
Forced                                   : No

Text #1
ID                                       : 3
Format                                   : UTF-8
Codec ID                                 : S_TEXT/UTF8
Codec ID/Info                            : UTF-8 Plain Text
Duration                                 : 1 h 28 min
Bit rate                                 : 34 b/s
Count of elements                        : 835
Stream size                              : 22.6 KiB (0%)
Title                                    : English
Language                                 : English
Default                                  : Yes
Forced                                   : Yes

Text #2
ID                                       : 4
Format                                   : UTF-8
Codec ID                                 : S_TEXT/UTF8
Codec ID/Info                            : UTF-8 Plain Text
Duration                                 : 1 h 35 min
Bit rate                                 : 35 b/s
Count of elements                        : 799
Stream size                              : 24.6 KiB (0%)
Title                                    : German
Language                                 : German
Default                                  : No
Forced                                   : No

Text #3
ID                                       : 5
Format                                   : UTF-8
Codec ID                                 : S_TEXT/UTF8
Codec ID/Info                            : UTF-8 Plain Text
Duration                                 : 1 h 35 min
Bit rate                                 : 38 b/s
Count of elements                        : 909
Stream size                              : 27.2 KiB (0%)
Title                                    : German SDH
Language                                 : German
Default                                  : No
Forced                                   : No

Text #4
ID                                       : 6
Format                                   : PGS
Muxing mode                              : zlib
Codec ID                                 : S_HDMV/PGS
Codec ID/Info                            : Picture based subtitle format used on BDs/HD-DVDs
Duration                                 : 1 h 35 min
Bit rate                                 : 8 106 b/s
Count of elements                        : 1818
Stream size                              : 5.54 MiB (0%)
Title                                    : German SDH
Language                                 : German
Default                                  : No
Forced                                   : No

Menu
00:00:00.000                             : en:00:00:00.000
00:10:37.917                             : en:00:10:37.917
00:19:46.500                             : en:00:19:46.500
00:30:52.292                             : en:00:30:52.292
00:42:00.333                             : en:00:42:00.333
00:49:16.417                             : en:00:49:16.417
00:58:38.792                             : en:00:58:38.792
01:07:31.000                             : en:01:07:31.000
01:20:59.000                             : en:01:20:59.000
01:29:13.292                             : en:01:29:13.292
[/url]



                                                                                                                                                                                                        
                                                                                                                                                                                                                                                                                                                                                                                                                                                                                                                                                                                                                                                                                                                                                                                                                                                        
602b9952bd3193abe78050e6755bedb6.zip (31.24 KB, 下载次数: 0)

回复

使用道具 举报

小黑屋|西西论坛

本网站所有资源来自网络,如无意中侵犯了您的权益,请发邮件至 [email protected],立即清除相关链接

GMT+8, 2021-3-9 07:51 , Processed in 0.088769 second(s), 23 queries .

Powered by Discuz! X3.2

© 2001-2013 Comsenz Inc.

快速回复 返回顶部 返回列表