西西论坛

 找回密码
 立即注册
搜索

瞌睡的磐音/Inemuri Iwane(美国) Iwane.Sword.Of.Serenity.2019.JAPANE...

[复制链接]
电影首发 发表于 2021-2-10 18:23:35 | 显示全部楼层 |阅读模式
-->
帖子完整标题:瞌睡的磐音/Inemuri Iwane(美国) Iwane.Sword.Of.Serenity.2019.JAPANESE.1080p.BluRay.x264.DTS-iKiW 9.76GB


[/url]

◎译  名 瞌睡的磐音/Inemuri Iwane(美国)/Iwane: Sword of Serenity/居眠り磐音(日本)/瞌睡的磐音(中国大陆)/磐音:俠義之劍(台)
◎片  名 居眠り磐音
◎年  代 2019
◎产  地 日本
◎类  别 剧情
◎语  言 日语
◎上映日期 2019-05-17(日本)
◎IMDb评分  5.6/10 from 57 users
◎  
◎豆瓣评分 6.7/10 from 1162 users
◎ 
◎片  长 122分钟
◎导  演 本木克英 Katsuhide Motoki
◎编  剧 藤本有纪 Yuki Fujimoto / 佐伯泰英 Yasuhide Saeki
◎主  演 松坂桃李 T?ri Matsuzaka
       木村文乃 Fumino Kimura
       芳根京子 Ky?ko Yoshine
       柄本佑 Tasuku Emoto
       杉野遥亮 Yosuke Sugino
       佐佐木藏之介 Kuranosuke Sasaki
       谷原章介 Sh?suke Tanihara
       中村梅雀 Baijaku Nakamura
       柄本明 Akira Emoto
       石丸谦二郎 Kenjir? Ishimaru
       财前直见 Naomi Zaizen
       西村雅彦 Masahiko Nishimura

◎标  签 日本 | 松坂桃李 | 日本电影 | 江户时代 | 2019 | 木村文乃 | 芳根京子 | 时代剧

◎简  介

  一起发生于丰后关前藩的意外,让磐音失去了两个发小。伤心的磐音决意离开家乡,于是告别了未婚妻奈绪,成为了一名漂泊无主的武士。磐音在江户的一间长屋中开始了自己的新生活,经屋主金兵卫的介绍,磐音白天在鳗鱼店做伙计,晚上在当铺老板今津的屋里做保镖。他温柔的秉性和出色的剑道慢慢赢得了周围人的信任,也虏获了金卫兵女儿的芳心。就在这时,磐音却被卷入了幕府流通的新货币阴谋之中。为了保护在江户遇到的这些重要之人,磐音必须将哀痛搁置心中,与恶势力进行对抗。
Video
ID                                       : 1
Format                                   : AVC
Format/Info                              : Advanced Video Codec
Format profile                           :
Format settings                          : CABAC / 5 Ref Frames
Format settings, CABAC                   : Yes
Format settings, Reference frames        : 5 frames
Codec ID                                 : V_MPEG4/ISO/AVC
Duration                                 : 2 h 1 min
Bit rate                                 : 9 942 kb/s
Width                                    : 1 920 pixels
Height                                   : 804 pixels
Display aspect ratio                     : 2.40:1
Frame rate mode                          : Constant
Frame rate                               : 23.976 (24000/1001/189150) FPS
Color space                              : YUV
Chroma subsampling                       : 4:2:0
Bit depth                                : 8 bits
Scan type                                : Progressive
Bits/(Pixel*Frame)                       : 0.269
Stream size                              : 8.46 GiB (87%)
Writing library                          : x264 core 129 r2245+704+36 8e61944 tMod+MixAQ [:2:0 X86_64]
Encoding settings                        : cabac=1 / ref=5 / deblock=1:-3:-3 / analyse=0x3:0x133 / me=umh / subme=11 / psy=1 / fade_compensate=0.00 / psy_rd=1.00:0.10 / mixed_ref=1 / me_range=64 / chroma_me=1 / trellis=2 / 8x8dct=1 / cqm=0 / deadzone=21,11 / fast_pskip=0 / chroma_qp_offset=-3 / threads=18 / lookahead_threads=3 / sliced_threads=0 / nr=0 / decimate=0 / interlaced=0 / bluray_compat=0 / constrained_intra=0 / fgo=0 / bframes=10 / b_pyramid=2 / b_adapt=2 / b_bias=0 / direct=3 / weightb=1 / open_gop=0 / weightp=2 / keyint=250 / keyint_min=23 / scenecut=40 / intra_refresh=0 / rc=2pass / mbtree=0 / bitrate=9942 / ratetol=1.0 / qcomp=0.70 / qpmin=0 / qpmax=69 / qpstep=4 / cplxblur=20.0 / qblur=0.5 / ip_ratio=1.40 / pb_ratio=1.30 / aq=1 / aq-strength=0.90 / aq-sensitivity=10.00 / aq-ifactor=1.00 / aq-pfactor=1.00 / aq-bfactor=1.00 / aq2=0
Language                                 : Japanese
Default                                  : Yes
Forced                                   : No

Audio
ID                                       : 2
Format                                   : DTS
Format/Info                              : Digital Theater Systems
Codec ID                                 : A_DTS
Duration                                 : 2 h 1 min
Bit rate mode                            : Constant
Bit rate                                 : 1 509 kb/s
Channel(s)                               : 6 channels
Channel layout                           : C L R Ls Rs LFE
Sampling rate                            : 48.0 kHz
Frame rate                               : 93.750 FPS (512 SPF)
Bit depth                                : 24 bits
Compression mode                         : Lossy
Stream size                              : 1.28 GiB (13%)
Language                                 : Japanese
Default                                  : Yes
Forced                                   : No

Text
ID                                       : 3
Format                                   : UTF-8
Codec ID                                 : S_TEXT/UTF8
Codec ID/Info                            : UTF-8 Plain Text
Duration                                 : 1 h 57 min
Bit rate                                 : 41 b/s
Count of elements                        : 1287
Stream size                              : 36.1 KiB (0%)
Language                                 : English
Default                                  : Yes
Forced                                   : No

Menu
00:00:00.000                             : en:第 01 章
00:21:07.391                             : en:第 02 章
00:36:03.536                             : en:第 03 章
00:53:27.662                             : en:第 04 章
01:11:21.193                             : en:第 05 章
01:17:47.913                             : en:第 06 章
01:36:27.323                             : en:第 07 章
01:55:44.354                             : en:第 08 章
02:01:50.303                             : en:第 09 章
[/url][/url][/url]



                                                                                                                                                                                                        
                                                                                                                                                                                                                                                                                                                                                                                                                                                                                                                                                                                                                                                                                                                                                                                                                                                        
b34396a069310578b576960f3543e115.zip (49.47 KB, 下载次数: 0)

回复

使用道具 举报

小黑屋|西西论坛

本网站所有资源来自网络,如无意中侵犯了您的权益,请发邮件至 [email protected],立即清除相关链接

GMT+8, 2021-3-2 03:59 , Processed in 0.088635 second(s), 23 queries .

Powered by Discuz! X3.2

© 2001-2013 Comsenz Inc.

快速回复 返回顶部 返回列表