西西论坛

 找回密码
 立即注册
搜索

熱血合唱團 Find.Your.Voice.2020.CHINESE.1080p.BluRay.x264-iKiW 8.24GB

[复制链接]
电影首发 发表于 2021-2-10 18:23:35 | 显示全部楼层 |阅读模式
-->
帖子完整标题:熱血合唱團 Find.Your.Voice.2020.CHINESE.1080p.BluRay.x264-iKiW 8.24GB


[/url]

◎译  名 热血合唱团/Find Your Voice
◎片  名 熱血合唱團
◎年  代 2020
◎产  地 中国香港
◎类  别 剧情
◎语  言 粤语
◎上映日期 2020-11-13(中国大陆) / 2020-11-26(中国香港)
◎IMDb评分  5/10 from 27 users
◎  
◎豆瓣评分 4.8/10 from 9100 users
◎ 
◎片  长 97分钟
◎导  演 关信辉 Adrian Kwan
◎编  剧 关信辉 Adrian Kwan / 张佩琼 Hannah Chang Pui King
◎主  演 刘德华 Andy Lau
       卢冠廷 Lowell Lo
       雷颂德 Mark Lui
       鄂靖文 Jingwen E
       吴岱融 Hugo Ng Doi-Yung
       谢君豪 Kwan-Ho Tse
       李丽珍 Loletta Lee
       孙佳君 Paulyn Sun
       关礼杰 Eddie Kwan
       尹扬明 Yeung Ming Wan
       于淼 Maggie Yu
       郑丹瑞 Lawrence Cheng
       王嘉慧 Jessica Wong
       林恺铃 Ashley Lam
       伍咏诗 Ng Wing Sze
       姚学智 Jeff Yiu
       王智骞 Martin Wong
       吴卓衡 Keefe Ng
       冯康宁 Hong Ling Fung
       王宜华 Chloe Wong

◎标  签 刘德华 | 香港电影 | 音乐 | 香港 | 文艺 | 剧情 | 华语电影 | 电影

◎简  介

  国际知名合唱团铁血指挥家严梓朗(刘德华饰),为帮助昔日恩师(卢冠廷饰)返回香港,带领一群因闯祸而被迫参加“热血合唱团试验计划”的废柴学生们,从零起步学习合唱。众人共同面对生活的挫折与挑战,最终在音乐中找回了自我,而严梓朗身上的秘密也逐步被揭开……
Video
ID                                       : 1
Format                                   : AVC
Format/Info                              : Advanced Video Codec
Format profile                           :
Format settings                          : CABAC / 5 Ref Frames
Format settings, CABAC                   : Yes
Format settings, Reference frames        : 5 frames
Codec ID                                 : V_MPEG4/ISO/AVC
Duration                                 : 1 h 35 min
Bit rate                                 : 11.6 Mb/s
Width                                    : 1 920 pixels
Height                                   : 804 pixels
Display aspect ratio                     : 2.40:1
Frame rate mode                          : Constant
Frame rate                               : 24.000 FPS
Color space                              : YUV
Chroma subsampling                       : 4:2:0
Bit depth                                : 8 bits
Scan type                                : Progressive
Bits/(Pixel*Frame)                       : 0.313
Stream size                              : 7.76 GiB (94%)
Writing library                          : x264 core 133 r2334 a3ac64b
Encoding settings                        : cabac=1 / ref=5 / deblock=1:-3:-3 / analyse=0x3:0x113 / me=umh / subme=11 / psy=1 / psy_rd=1.00:0.00 / mixed_ref=1 / me_range=64 / chroma_me=1 / trellis=2 / 8x8dct=1 / cqm=0 / deadzone=21,11 / fast_pskip=0 / chroma_qp_offset=-4 / threads=36 / lookahead_threads=6 / sliced_threads=0 / nr=0 / decimate=0 / interlaced=0 / bluray_compat=0 / constrained_intra=0 / bframes=8 / b_pyramid=2 / b_adapt=2 / b_bias=0 / direct=3 / weightb=1 / open_gop=0 / weightp=2 / keyint=250 / keyint_min=24 / scenecut=40 / intra_refresh=0 / rc=2pass / mbtree=0 / bitrate=11600 / ratetol=1.0 / qcomp=0.60 / qpmin=0 / qpmax=69 / qpstep=4 / cplxblur=20.0 / qblur=0.5 / ip_ratio=1.40 / pb_ratio=1.30 / aq=1:0.80
Language                                 : English
Default                                  : Yes
Forced                                   : No

Audio
ID                                       : 2
Format                                   : AC-3
Format/Info                              : Audio Coding 3
Commercial name                          : Dolby Digital
Codec ID                                 : A_AC3
Duration                                 : 1 h 35 min
Bit rate mode                            : Constant
Bit rate                                 : 640 kb/s
Channel(s)                               : 6 channels
Channel layout                           : L R C LFE Ls Rs
Sampling rate                            : 48.0 kHz
Frame rate                               : 31.250 FPS (1536 SPF)
Compression mode                         : Lossy
Stream size                              : 439 MiB (5%)
Title                                    : 粤语
Language                                 : Chinese
Service kind                             : Complete Main
Default                                  : No
Forced                                   : No

Text
ID                                       : 3
Format                                   : UTF-8
Codec ID                                 : S_TEXT/UTF8
Codec ID/Info                            : UTF-8 Plain Text
Duration                                 : 1 h 29 min
Bit rate                                 : 48 b/s
Count of elements                        : 1513
Stream size                              : 32.2 KiB (0%)
Language                                 : English
Default                                  : Yes
Forced                                   : No
[/url][/url]



                                                                                                                                                                                                        
                                                                                                                                                                                                                                                                                                                                                                                                                                                                                                                                                                                                                                                                                                                                                                                                                                                        
d27df79e30d8dba42c18fa1b27577652.zip (41.86 KB, 下载次数: 0)

回复

使用道具 举报

小黑屋|西西论坛

本网站所有资源来自网络,如无意中侵犯了您的权益,请发邮件至 [email protected],立即清除相关链接

GMT+8, 2021-3-2 03:30 , Processed in 0.094449 second(s), 23 queries .

Powered by Discuz! X3.2

© 2001-2013 Comsenz Inc.

快速回复 返回顶部 返回列表