西西论坛

 找回密码
 立即注册
搜索

无间行者之生死潜行 The.Redeemers.2020.CHINESE.1080p.BluRay.x264.DTS-...

[复制链接]
电影首发 发表于 2021-2-10 18:23:35 | 显示全部楼层 |阅读模式
-->
帖子完整标题:无间行者之生死潜行 The.Redeemers.2020.CHINESE.1080p.BluRay.x264.DTS-iKiW 8.44GB


[/url]

◎译  名 The Infernal Walker/无间行者
◎片  名 无间行者之生死潜行
◎年  代 2020
◎产  地 中国大陆,中国香港
◎类  别 剧情 / 动作 / 犯罪
◎语  言 汉语普通话,粤语
◎上映日期 2020-11-20(中国大陆)
◎IMDb评分  5/10 from 20 users
◎  
◎豆瓣评分 4.4/10 from 2639 users
◎ 
◎片  长 90分钟
◎导  演 黄家辉 Ka Fai Wong / 钟少雄 Siu-hung Chung
◎编  剧 孙子荣 Samson Sun
◎主  演 谢天华 Michael Tse
       周柏豪  Pakho Chau
       吕良伟 Ray Lui
       梁竞徽 Oscar Leung
       陈启泰 Kenneth Chan
       许绍雄 Siu-Hung Hui
       吴毅将 Ben Ng
       甘婷婷 Tingting Gan
       连诗雅 Shiga Lin
       黄德斌 Tak-bun Wong

◎标  签 警匪 | 香港电影 | 香港 | 2020 | 港影 | 超级注水大烂片 | 情怀 | 电影

◎简  介

  黑帮「福和」的丁卓飞(谢天华 饰)与反黑队督察段一凡(周柏豪 饰)是双方安插对方阵营的卧底。 丁卓飞在「福和」做了十年卧底,为了掩饰真实身份,他比别人更加心狠手辣,亦因此渐渐接近核心。但亲手拷问同袍,看著他们惨死,令丁卓飞开始厌倦这没有尽头的卧底工作…… 另一边,段一凡在反黑组步步高升,更有望成为最年轻的总督察。事业爱情皆美满的段一凡,开始渴望做一个真真正正的警察。他处心积虑想摆脱宋先生(陈启泰 饰)和他背后的「东利贸易」…一次「福和」及「东利」的毒品交易,原来是「福和」话事人找出双方叛徒的骗局。一黑一白两个警察,各自为自己的正义之途,走上你死我亡的对峙局面……
Video
ID                                       : 1
Format                                   : AVC
Format/Info                              : Advanced Video Codec
Format profile                           :
Format settings                          : CABAC / 5 Ref Frames
Format settings, CABAC                   : Yes
Format settings, Reference frames        : 5 frames
Codec ID                                 : V_MPEG4/ISO/AVC
Duration                                 : 1 h 30 min
Bit rate                                 : 11.8 Mb/s
Width                                    : 1 920 pixels
Height                                   : 804 pixels
Display aspect ratio                     : 2.40:1
Frame rate mode                          : Constant
Frame rate                               : 24.000 FPS
Color space                              : YUV
Chroma subsampling                       : 4:2:0
Bit depth                                : 8 bits
Scan type                                : Progressive
Bits/(Pixel*Frame)                       : 0.319
Stream size                              : 7.44 GiB (88%)
Writing library                          : x264 core 133 r2334 a3ac64b
Encoding settings                        : cabac=1 / ref=5 / deblock=1:-3:-3 / analyse=0x3:0x113 / me=umh / subme=11 / psy=1 / psy_rd=1.00:0.00 / mixed_ref=1 / me_range=64 / chroma_me=1 / trellis=2 / 8x8dct=1 / cqm=0 / deadzone=21,11 / fast_pskip=0 / chroma_qp_offset=-4 / threads=36 / lookahead_threads=6 / sliced_threads=0 / nr=0 / decimate=0 / interlaced=0 / bluray_compat=0 / constrained_intra=0 / bframes=8 / b_pyramid=2 / b_adapt=2 / b_bias=0 / direct=3 / weightb=1 / open_gop=0 / weightp=2 / keyint=250 / keyint_min=24 / scenecut=40 / intra_refresh=0 / rc=2pass / mbtree=0 / bitrate=11800 / ratetol=1.0 / qcomp=0.60 / qpmin=0 / qpmax=69 / qpstep=4 / cplxblur=20.0 / qblur=0.5 / ip_ratio=1.40 / pb_ratio=1.30 / aq=1:0.80
Language                                 : English
Default                                  : Yes
Forced                                   : No

Audio
ID                                       : 2
Format                                   : DTS
Format/Info                              : Digital Theater Systems
Codec ID                                 : A_DTS
Duration                                 : 1 h 30 min
Bit rate mode                            : Constant
Bit rate                                 : 1 509 kb/s
Channel(s)                               : 6 channels
Channel layout                           : C L R Ls Rs LFE
Sampling rate                            : 48.0 kHz
Frame rate                               : 93.750 FPS (512 SPF)
Bit depth                                : 16 bits
Compression mode                         : Lossy
Stream size                              : 976 MiB (11%)
Title                                    : 粤语
Language                                 : Chinese
Default                                  : Yes
Forced                                   : No

Text
ID                                       : 3
Format                                   : UTF-8
Codec ID                                 : S_TEXT/UTF8
Codec ID/Info                            : UTF-8 Plain Text
Duration                                 : 1 h 26 min
Bit rate                                 : 49 b/s
Count of elements                        : 1291
Stream size                              : 31.0 KiB (0%)
Language                                 : English
Default                                  : Yes
Forced                                   : No
[/url][/url][/url]



                                                                                                                                                                                                        
                                                                                                                                                                                                                                                                                                                                                                                                                                                                                                                                                                                                                                                                                                                                                                                                                                                        
d9f13e18e1054253782417806d2af019.zip (42.89 KB, 下载次数: 0)

回复

使用道具 举报

小黑屋|西西论坛

本网站所有资源来自网络,如无意中侵犯了您的权益,请发邮件至 [email protected],立即清除相关链接

GMT+8, 2021-3-2 03:12 , Processed in 0.100465 second(s), 23 queries .

Powered by Discuz! X3.2

© 2001-2013 Comsenz Inc.

快速回复 返回顶部 返回列表