西西论坛

 找回密码
 立即注册
搜索

[BD-4K] 自由之缰 第三季 Free.Rein.The.Twelve.Neighs.of.Christmas.2018.2160p.NF...

[复制链接]
电影首发 发表于 2021-2-9 09:45:00 | 显示全部楼层 |阅读模式
-->
帖子完整标题:自由之缰 第三季 Free.Rein.The.Twelve.Neighs.of.Christmas.2018.2160p.NF.WEB-DL.x265.10bit.SDR.DDP5.1-SWTYBLZ 4.93GB


[/url]

◎译  名 自由之缰 第三季
◎片  名 Free Rein:The 12 Neighs of Christmas Season 3
◎年  代 2018
◎产  地 美国
◎类  别 剧情 / 家庭
◎语  言 英语
◎上映日期 2018-12-07(美国)
◎IMDb评分  6.5/10 from 716 users
◎  
◎豆瓣评分 /10 from 0 users
◎ 
◎集  数 12
◎片  长 57分钟
◎主  演 席琳·邦金斯 Celine Buckens
       凯莉·英格拉姆 Kerry Ingram
       弗莱迪·卡特 Freddy Carter
       曼普丽特· 班布拉 Manpreet Bambra
       布鲁斯·赫柏林-厄尔 Bruce Herbelin-Earle
       杰琳·巴伦 Jaylen Barron

◎标  签 美国 | 美剧 | 喜剧

◎简  介

  光明马场准备榭寄生舞会之际,一件破碎的装饰品引领佐伊寻找家族秘密,而盖比则发现自己受到了新老板米亚的控制。
Video
ID                                       : 1
Format                                   : HEVC
Format/Info                              : High Efficiency Video Coding
Format profile                           : Main @Main
Codec ID                                 : V_MPEGH/ISO/HEVC
Duration                                 : 57 min 32 s
Bit rate                                 : 11.6 Mb/s
Width                                    : 3 840 pixels
Height                                   : 2 160 pixels
Display aspect ratio                     : 16:9
Frame rate mode                          : Constant
Frame rate                               : 25.000 FPS
Color space                              : YUV
Chroma subsampling                       : 4:2:0
Bit depth                                : 10 bits
Bits/(Pixel*Frame)                       : 0.056
Stream size                              : 4.67 GiB (95%)
Default                                  : Yes
Forced                                   : No
Color range                              : Limited
Color primaries                          : BT.709
Transfer characteristics                 : BT.709
Matrix coefficients                      : BT.709

Audio
ID                                       : 2
Format                                   : E-AC-3
Format/Info                              : Enhanced AC-3
Commercial name                          : Dolby Digital Plus
Codec ID                                 : A_EAC3
Duration                                 : 57 min 32 s
Bit rate mode                            : Constant
Bit rate                                 : 640 kb/s
Channel(s)                               : 6 channels
Channel layout                           : L R C LFE Ls Rs
Sampling rate                            : 48.0 kHz
Frame rate                               : 31.250 FPS (1536 SPF)
Compression mode                         : Lossy
Stream size                              : 263 MiB (5%)
Title                                    : DDP 5.1
Language                                 : English
Service kind                             : Complete Main
Default                                  : Yes
Forced                                   : No

Text #1
ID                                       : 3
Format                                   : UTF-8
Codec ID                                 : S_TEXT/UTF8
Codec ID/Info                            : UTF-8 Plain Text
Duration                                 : 55 min 48 s
Bit rate                                 : 68 b/s
Count of elements                        : 862
Stream size                              : 28.2 KiB (0%)
Title                                    : SDH
Language                                 : English
Default                                  : No
Forced                                   : No

Text #2
ID                                       : 4
Format                                   : UTF-8
Codec ID                                 : S_TEXT/UTF8
Codec ID/Info                            : UTF-8 Plain Text
Duration                                 : 56 min 30 s
Bit rate                                 : 101 b/s
Count of elements                        : 712
Stream size                              : 41.8 KiB (0%)
Language                                 : Arabic
Default                                  : No
Forced                                   : No

Text #3
ID                                       : 5
Format                                   : UTF-8
Codec ID                                 : S_TEXT/UTF8
Codec ID/Info                            : UTF-8 Plain Text
Duration                                 : 55 min 49 s
Bit rate                                 : 44 b/s
Count of elements                        : 841
Stream size                              : 18.3 KiB (0%)
Language                                 : Czech
Default                                  : No
Forced                                   : No

Text #4
ID                                       : 6
Format                                   : UTF-8
Codec ID                                 : S_TEXT/UTF8
Codec ID/Info                            : UTF-8 Plain Text
Duration                                 : 55 min 49 s
Bit rate                                 : 46 b/s
Count of elements                        : 611
Stream size                              : 18.9 KiB (0%)
Language                                 : Danish
Default                                  : No
Forced                                   : No

Text #5
ID                                       : 7
Format                                   : UTF-8
Codec ID                                 : S_TEXT/UTF8
Codec ID/Info                            : UTF-8 Plain Text
Duration                                 : 55 min 49 s
Bit rate                                 : 48 b/s
Count of elements                        : 676
Stream size                              : 19.9 KiB (0%)
Language                                 : German
Default                                  : No
Forced                                   : No

Text #6
ID                                       : 8
Format                                   : UTF-8
Codec ID                                 : S_TEXT/UTF8
Codec ID/Info                            : UTF-8 Plain Text
Duration                                 : 55 min 49 s
Bit rate                                 : 88 b/s
Count of elements                        : 754
Stream size                              : 36.1 KiB (0%)
Language                                 : Greek
Default                                  : No
Forced                                   : No

Text #7
ID                                       : 9
Format                                   : UTF-8
Codec ID                                 : S_TEXT/UTF8
Codec ID/Info                            : UTF-8 Plain Text
Duration                                 : 55 min 49 s
Bit rate                                 : 47 b/s
Count of elements                        : 683
Stream size                              : 19.6 KiB (0%)
Language                                 : Finnish
Default                                  : No
Forced                                   : No

Text #8
ID                                       : 10
Format                                   : UTF-8
Codec ID                                 : S_TEXT/UTF8
Codec ID/Info                            : UTF-8 Plain Text
Duration                                 : 55 min 49 s
Bit rate                                 : 56 b/s
Count of elements                        : 785
Stream size                              : 23.0 KiB (0%)
Language                                 : French
Default                                  : No
Forced                                   : No

Text #9
ID                                       : 11
Format                                   : UTF-8
Codec ID                                 : S_TEXT/UTF8
Codec ID/Info                            : UTF-8 Plain Text
Duration                                 : 55 min 49 s
Bit rate                                 : 91 b/s
Count of elements                        : 764
Stream size                              : 37.2 KiB (0%)
Language                                 : Hebrew
Default                                  : No
Forced                                   : No

Text #10
ID                                       : 12
Format                                   : UTF-8
Codec ID                                 : S_TEXT/UTF8
Codec ID/Info                            : UTF-8 Plain Text
Duration                                 : 55 min 49 s
Bit rate                                 : 55 b/s
Count of elements                        : 795
Stream size                              : 22.8 KiB (0%)
Language                                 : Hungarian
Default                                  : No
Forced                                   : No

Text #11
ID                                       : 13
Format                                   : UTF-8
Codec ID                                 : S_TEXT/UTF8
Codec ID/Info                            : UTF-8 Plain Text
Duration                                 : 55 min 49 s
Bit rate                                 : 58 b/s
Count of elements                        : 794
Stream size                              : 24.1 KiB (0%)
Language                                 : Indonesian
Default                                  : No
Forced                                   : No

Text #12
ID                                       : 14
Format                                   : UTF-8
Codec ID                                 : S_TEXT/UTF8
Codec ID/Info                            : UTF-8 Plain Text
Duration                                 : 55 min 49 s
Bit rate                                 : 50 b/s
Count of elements                        : 798
Stream size                              : 20.6 KiB (0%)
Language                                 : Spanish
Default                                  : No
Forced                                   : No

Text #13
ID                                       : 15
Format                                   : UTF-8
Codec ID                                 : S_TEXT/UTF8
Codec ID/Info                            : UTF-8 Plain Text
Duration                                 : 56 min 26 s
Bit rate                                 : 57 b/s
Count of elements                        : 787
Stream size                              : 23.7 KiB (0%)
Language                                 : Spanish
Default                                  : No
Forced                                   : No

Text #14
ID                                       : 16
Format                                   : UTF-8
Codec ID                                 : S_TEXT/UTF8
Codec ID/Info                            : UTF-8 Plain Text
Duration                                 : 55 min 49 s
Bit rate                                 : 49 b/s
Count of elements                        : 765
Stream size                              : 20.2 KiB (0%)
Language                                 : Italian
Default                                  : No
Forced                                   : No

Text #15
ID                                       : 17
Format                                   : UTF-8
Codec ID                                 : S_TEXT/UTF8
Codec ID/Info                            : UTF-8 Plain Text
Duration                                 : 56 min 26 s
Bit rate                                 : 54 b/s
Count of elements                        : 840
Stream size                              : 22.6 KiB (0%)
Language                                 : Japanese
Default                                  : No
Forced                                   : No

Text #16
ID                                       : 18
Format                                   : UTF-8
Codec ID                                 : S_TEXT/UTF8
Codec ID/Info                            : UTF-8 Plain Text
Duration                                 : 55 min 49 s
Bit rate                                 : 73 b/s
Count of elements                        : 808
Stream size                              : 30.1 KiB (0%)
Language                                 : Korean
Default                                  : No
Forced                                   : No

Text #17
ID                                       : 19
Format                                   : UTF-8
Codec ID                                 : S_TEXT/UTF8
Codec ID/Info                            : UTF-8 Plain Text
Duration                                 : 55 min 49 s
Bit rate                                 : 44 b/s
Count of elements                        : 784
Stream size                              : 18.3 KiB (0%)
Language                                 : Norwegian Bokmal
Default                                  : No
Forced                                   : No

Text #18
ID                                       : 20
Format                                   : UTF-8
Codec ID                                 : S_TEXT/UTF8
Codec ID/Info                            : UTF-8 Plain Text
Duration                                 : 55 min 49 s
Bit rate                                 : 50 b/s
Count of elements                        : 707
Stream size                              : 20.8 KiB (0%)
Language                                 : Dutch
Default                                  : No
Forced                                   : No

Text #19
ID                                       : 21
Format                                   : UTF-8
Codec ID                                 : S_TEXT/UTF8
Codec ID/Info                            : UTF-8 Plain Text
Duration                                 : 55 min 49 s
Bit rate                                 : 47 b/s
Count of elements                        : 729
Stream size                              : 19.4 KiB (0%)
Language                                 : Polish
Default                                  : No
Forced                                   : No

Text #20
ID                                       : 22
Format                                   : UTF-8
Codec ID                                 : S_TEXT/UTF8
Codec ID/Info                            : UTF-8 Plain Text
Duration                                 : 55 min 49 s
Bit rate                                 : 52 b/s
Count of elements                        : 744
Stream size                              : 21.3 KiB (0%)
Title                                    : Brasil
Language                                 : Portuguese
Default                                  : No
Forced                                   : No

Text #21
ID                                       : 23
Format                                   : UTF-8
Codec ID                                 : S_TEXT/UTF8
Codec ID/Info                            : UTF-8 Plain Text
Duration                                 : 55 min 49 s
Bit rate                                 : 64 b/s
Count of elements                        : 805
Stream size                              : 26.2 KiB (0%)
Title                                    : Simplified
Language                                 : Chinese
Default                                  : No
Forced                                   : No

Text #22
ID                                       : 24
Format                                   : UTF-8
Codec ID                                 : S_TEXT/UTF8
Codec ID/Info                            : UTF-8 Plain Text
Duration                                 : 55 min 49 s
Bit rate                                 : 60 b/s
Count of elements                        : 804
Stream size                              : 24.6 KiB (0%)
Title                                    : Traditional
Language                                 : Chinese
Default                                  : No
Forced                                   : No

Text #23
ID                                       : 25
Format                                   : UTF-8
Codec ID                                 : S_TEXT/UTF8
Codec ID/Info                            : UTF-8 Plain Text
Duration                                 : 55 min 49 s
Bit rate                                 : 55 b/s
Count of elements                        : 757
Stream size                              : 22.8 KiB (0%)
Language                                 : Portuguese
Default                                  : No
Forced                                   : No

Text #24
ID                                       : 26
Format                                   : UTF-8
Codec ID                                 : S_TEXT/UTF8
Codec ID/Info                            : UTF-8 Plain Text
Duration                                 : 55 min 49 s
Bit rate                                 : 55 b/s
Count of elements                        : 793
Stream size                              : 22.8 KiB (0%)
Language                                 : Romanian
Default                                  : No
Forced                                   : No

Text #25
ID                                       : 27
Format                                   : UTF-8
Codec ID                                 : S_TEXT/UTF8
Codec ID/Info                            : UTF-8 Plain Text
Duration                                 : 55 min 49 s
Bit rate                                 : 81 b/s
Count of elements                        : 778
Stream size                              : 33.3 KiB (0%)
Language                                 : Russian
Default                                  : No
Forced                                   : No

Text #26
ID                                       : 28
Format                                   : UTF-8
Codec ID                                 : S_TEXT/UTF8
Codec ID/Info                            : UTF-8 Plain Text
Duration                                 : 55 min 50 s
Bit rate                                 : 53 b/s
Count of elements                        : 588
Stream size                              : 21.8 KiB (0%)
Language                                 : Swedish
Default                                  : No
Forced                                   : No

Text #27
ID                                       : 29
Format                                   : UTF-8
Codec ID                                 : S_TEXT/UTF8
Codec ID/Info                            : UTF-8 Plain Text
Duration                                 : 55 min 49 s
Bit rate                                 : 164 b/s
Count of elements                        : 806
Stream size                              : 67.2 KiB (0%)
Language                                 : Thai
Default                                  : No
Forced                                   : No

Text #28
ID                                       : 30
Format                                   : UTF-8
Codec ID                                 : S_TEXT/UTF8
Codec ID/Info                            : UTF-8 Plain Text
Duration                                 : 55 min 49 s
Bit rate                                 : 53 b/s
Count of elements                        : 788
Stream size                              : 21.7 KiB (0%)
Language                                 : Turkish
Default                                  : No
Forced                                   : No

Text #29
ID                                       : 31
Format                                   : UTF-8
Codec ID                                 : S_TEXT/UTF8
Codec ID/Info                            : UTF-8 Plain Text
Duration                                 : 55 min 49 s
Bit rate                                 : 77 b/s
Count of elements                        : 805
Stream size                              : 31.7 KiB (0%)
Language                                 : Vietnamese
Default                                  : No
Forced                                   : No

回复

使用道具 举报

小黑屋|西西论坛

本网站所有资源来自网络,如无意中侵犯了您的权益,请发邮件至 [email protected],立即清除相关链接

GMT+8, 2021-2-26 03:03 , Processed in 0.125109 second(s), 25 queries .

Powered by Discuz! X3.2

© 2001-2013 Comsenz Inc.

快速回复 返回顶部 返回列表