西西论坛

 找回密码
 立即注册
搜索

地平线/空中谜航 Horizon.Line.2020.1080p.BluRay.x264.DTS-HD.MA.5.1-MT 1...

[复制链接]
电影首发 发表于 2021-2-9 09:14:29 | 显示全部楼层 |阅读模式
-->
帖子完整标题:地平线/空中谜航 Horizon.Line.2020.1080p.BluRay.x264.DTS-HD.MA.5.1-MT 13.34GB


[/url]

◎译  名 地平线/空中谜航(台)
◎片  名 Horizon Line
◎年  代 2020
◎产  地 瑞典,美国
◎类  别 惊悚 / 灾难
◎语  言 英语
◎上映日期 2020-11-06(英国)
◎IMDb评分  4.6/10 from 3077 users
◎  
◎豆瓣评分 5.7/10 from 428 users
◎ 
◎片  长 87分钟
◎导  演 米凯尔·马奇曼 Mikael Marcimain
◎编  剧 乔什·坎贝尔 Josh Campbell / 马修·斯托肯 Matthew Stuecken
◎主  演 亚历山大·德雷蒙 Alexander Dreymon
       艾莉森·威廉姆斯 Allison Williams
       凯斯·大卫 Keith David
       珀尔·麦基 Pearl Mackie
       贾马恩·亨特 Jumayn Hunter

◎标  签 灾难 | 惊悚 | 2020 | 瑞典 | 美国 | 悬疑 | 地平线 | 电影

◎简  介

  故事讲述一对情侣坐小飞机去岛屿上参加婚礼,在离开小岛时飞行员不幸突发心脏病,俩人得想办法活下来。
Video
ID                                       : 1
Format                                   : AVC
Format/Info                              : Advanced Video Codec
Format profile                           :
Format settings                          : CABAC / 5 Ref Frames
Format settings, CABAC                   : Yes
Format settings, Reference frames        : 5 frames
Codec ID                                 : V_MPEG4/ISO/AVC
Duration                                 : 1 h 31 min
Bit rate                                 : 16.7 Mb/s
Width                                    : 1 920 pixels
Height                                   : 804 pixels
Display aspect ratio                     : 2.40:1
Frame rate mode                          : Constant
Frame rate                               : 23.976 (24000/1001/189150) FPS
Color space                              : YUV
Chroma subsampling                       : 4:2:0
Bit depth                                : 8 bits
Scan type                                : Progressive
Bits/(Pixel*Frame)                       : 0.451
Stream size                              : 10.7 GiB (80%)
Writing library                          : x264 core 157 r2938 2b00a84  Mod
Encoding settings                        : cabac=1 / ref=5 / deblock=1:-3:-3 / analyse=0x3:0x133 / me=umh / subme=10 / psy=1 / psy_rd=1.05:0.00 / mixed_ref=1 / me_range=32 / chroma_me=1 / trellis=2 / 8x8dct=1 / cqm=0 / deadzone=21,11 / fast_pskip=0 / chroma_qp_offset=-2 / threads=12 / lookahead_threads=2 / sliced_threads=0 / nr=0 / decimate=0 / interlaced=0 / bluray_compat=0 / constrained_intra=0 / bframes=8 / b_pyramid=2 / b_adapt=2 / b_bias=0 / direct=3 / weightb=1 / open_gop=0 / weightp=2 / keyint=250 / keyint_min=24 / scenecut=40 / intra_refresh=0 / rc_lookahead=250 / rc=crf / mbtree=0 / crf=16.8 / qcomp=0.60 / qpmin=0 / qpmax=69 / qpstep=4 / vbv_maxrate=62500 / vbv_bufsize=78125 / crf_max=0.0 / nal_hrd=none / filler=0 / ip_ratio=1.30 / pb_ratio=1.20 / aq=3:0.80
Language                                 : English
Default                                  : Yes
Forced                                   : No
Color range                              : Limited
Color primaries                          : BT.709
Matrix coefficients                      : BT.709

Audio
ID                                       : 2
Format                                   : DTS XLL
Format/Info                              : Digital Theater Systems
Commercial name                          : DTS-HD Master Audio
Codec ID                                 : A_DTS
Duration                                 : 1 h 31 min
Bit rate mode                            : Variable
Bit rate                                 : 4 056 kb/s
Channel(s)                               : 6 channels
Channel layout                           : C L R Ls Rs LFE
Sampling rate                            : 48.0 kHz
Frame rate                               : 93.750 FPS (512 SPF)
Bit depth                                : 24 bits
Compression mode                         : Lossless
Stream size                              : 2.61 GiB (20%)
Language                                 : English
Default                                  : Yes
Forced                                   : No

Text #1
ID                                       : 3
Format                                   : UTF-8
Codec ID                                 : S_TEXT/UTF8
Codec ID/Info                            : UTF-8 Plain Text
Duration                                 : 1 h 20 min
Bit rate                                 : 41 b/s
Count of elements                        : 881
Stream size                              : 24.8 KiB (0%)
Title                                    : SRT
Language                                 : English
Default                                  : Yes
Forced                                   : No

Text #2
ID                                       : 4
Format                                   : PGS
Muxing mode                              : zlib
Codec ID                                 : S_HDMV/PGS
Codec ID/Info                            : Picture based subtitle format used on BDs/HD-DVDs
Duration                                 : 1 h 22 min
Bit rate                                 : 33.1 kb/s
Count of elements                        : 2106
Stream size                              : 19.5 MiB (0%)
Language                                 : English
Default                                  : No
Forced                                   : No

Menu
00:00:00.000                             : en:Chapter 01
00:05:02.719                             : en:Chapter 02
00:08:35.807                             : en:Chapter 03
00:12:02.639                             : en:Chapter 04
00:14:43.758                             : en:Chapter 05
00:17:57.118                             : en:Chapter 06
00:23:35.706                             : en:Chapter 07
00:29:23.720                             : en:Chapter 08
00:31:57.207                             : en:Chapter 09
00:38:58.920                             : en:Chapter 10
00:42:30.965                             : en:Chapter 11
00:48:51.512                             : en:Chapter 12
00:53:58.610                             : en:Chapter 13
00:58:11.238                             : en:Chapter 14
01:04:53.890                             : en:Chapter 15
01:08:17.510                             : en:Chapter 16
01:12:32.890                             : en:Chapter 17
01:15:26.731                             : en:Chapter 18
01:18:29.079                             : en:Chapter 19
01:23:45.103                             : en:Chapter 20
[/url][/url]



                                                                                                                                                                                                        
                                                                                                                                                                                                                                                                                                                                                                                                                                                                                                                                                                                                                                                                                                                                                                                                                                                        
1defc7402b1d80221443a24ea4bbcb0c.zip (67.36 KB, 下载次数: 0)

回复

使用道具 举报

小黑屋|西西论坛

本网站所有资源来自网络,如无意中侵犯了您的权益,请发邮件至 [email protected],立即清除相关链接

GMT+8, 2021-3-9 08:29 , Processed in 0.092261 second(s), 23 queries .

Powered by Discuz! X3.2

© 2001-2013 Comsenz Inc.

快速回复 返回顶部 返回列表