西西论坛

 找回密码
 立即注册
搜索

异星危机 Breach.2020.1080p.BluRay.x264-BRUCEWILLIS 11.97GB

[复制链接]
电影首发 发表于 2021-2-7 15:00:27 | 显示全部楼层 |阅读模式
-->
帖子完整标题:异星危机 Breach.2020.1080p.BluRay.x264-BRUCEWILLIS 11.97GB


[/url]

◎译  名 异星危机/Anti-life/异种猎杀(台)
◎片  名 Breach
◎年  代 2020
◎产  地 加拿大
◎类  别 动作 / 科幻
◎语  言 英语
◎上映日期 2020-12-18(美国)
◎IMDb评分  3.7/10 from 6093 users
◎  
◎豆瓣评分 3.4/10 from 764 users
◎ 
◎片  长 92分钟
◎导  演 约翰·修茨 John Suits
◎编  剧 科里·拉奇 Corey Large / 爱德华·德雷克 Edward Drake
◎主  演 科迪·基尔斯利 Cody Kearsley
       布鲁斯·威利斯 Bruce Willis
       瑞秋·尼科尔斯 Rachel Nichols
       约翰尼·梅辛纳 Johnny Messner
       科里·拉奇 Corey Large
       卡兰·马尔韦 Callan Mulvey
       蒂莫西·V·墨菲 Timothy V. Murphy
       乔翰·厄布 Johann Urb
       拉尔夫·莫勒 Ralf Moeller
       斯温·特梅尔 Swen Temmel
       托马斯·简 Thomas Jane

◎标  签 科幻 | 布鲁斯威利斯 | 2020 | 科幻片 | 动作 | 加拿大 | 惊悚 | 美国电影

◎简  介

  故事讲述地球遭遇毁灭性瘟疫,一艘星际方舟载着人类逃离,却受到了新的威胁攻击——一种变形的外星力量出现要灭绝人类!
Video
ID                                       : 1
Format                                   : AVC
Format/Info                              : Advanced Video Codec
Format profile                           :
Format settings                          : CABAC / 5 Ref Frames
Format settings, CABAC                   : Yes
Format settings, Reference frames        : 5 frames
Codec ID                                 : V_MPEG4/ISO/AVC
Duration                                 : 1 h 32 min
Bit rate                                 : 14.7 Mb/s
Width                                    : 1 920 pixels
Height                                   : 800 pixels
Display aspect ratio                     : 2.40:1
Frame rate mode                          : Constant
Frame rate                               : 23.976 (24000/1001/189150) FPS
Color space                              : YUV
Chroma subsampling                       : 4:2:0
Bit depth                                : 8 bits
Scan type                                : Progressive
Bits/(Pixel*Frame)                       : 0.398
Stream size                              : 9.49 GiB (79%)
Writing library                          : x264 core 161 r3043 59c0609
Encoding settings                        : cabac=1 / ref=5 / deblock=1:-3:-3 / analyse=0x3:0x133 / me=umh / subme=9 / psy=1 / psy_rd=1.00:0.00 / mixed_ref=1 / me_range=32 / chroma_me=1 / trellis=2 / 8x8dct=1 / cqm=0 / deadzone=21,11 / fast_pskip=0 / chroma_qp_offset=-2 / threads=25 / lookahead_threads=2 / sliced_threads=0 / nr=0 / decimate=0 / interlaced=0 / bluray_compat=0 / constrained_intra=0 / bframes=3 / b_pyramid=2 / b_adapt=2 / b_bias=0 / direct=3 / weightb=1 / open_gop=0 / weightp=2 / keyint=250 / keyint_min=23 / scenecut=40 / intra_refresh=0 / rc=crf / mbtree=0 / crf=17.0 / qcomp=0.60 / qpmin=0 / qpmax=69 / qpstep=4 / ip_ratio=1.40 / pb_ratio=1.30 / aq=3:0.80
Default                                  : Yes
Forced                                   : No
Color range                              : Limited
Matrix coefficients                      : BT.709

Audio
ID                                       : 2
Format                                   : DTS XLL
Format/Info                              : Digital Theater Systems
Commercial name                          : DTS-HD Master Audio
Codec ID                                 : A_DTS
Duration                                 : 1 h 32 min
Bit rate mode                            : Variable
Bit rate                                 : 3 773 kb/s
Channel(s)                               : 6 channels
Channel layout                           : C L R Ls Rs LFE
Sampling rate                            : 48.0 kHz
Frame rate                               : 93.750 FPS (512 SPF)
Bit depth                                : 24 bits
Compression mode                         : Lossless
Stream size                              : 2.44 GiB (20%)
Title                                    : DTS-HD MA 5.1
Language                                 : English
Default                                  : Yes
Forced                                   : No

Text #1
ID                                       : 3
Format                                   : PGS
Muxing mode                              : zlib
Codec ID                                 : S_HDMV/PGS
Codec ID/Info                            : Picture based subtitle format used on BDs/HD-DVDs
Duration                                 : 1 h 28 min
Bit rate                                 : 29.6 kb/s
Count of elements                        : 1922
Stream size                              : 18.7 MiB (0%)
Title                                    : Full
Language                                 : English
Default                                  : No
Forced                                   : No

Text #2
ID                                       : 4
Format                                   : PGS
Muxing mode                              : zlib
Codec ID                                 : S_HDMV/PGS
Codec ID/Info                            : Picture based subtitle format used on BDs/HD-DVDs
Duration                                 : 1 h 28 min
Bit rate                                 : 37.0 kb/s
Count of elements                        : 2633
Stream size                              : 23.5 MiB (0%)
Title                                    : English SDH
Language                                 : English
Default                                  : No
Forced                                   : No

Text #3
ID                                       : 5
Format                                   : PGS
Muxing mode                              : zlib
Codec ID                                 : S_HDMV/PGS
Codec ID/Info                            : Picture based subtitle format used on BDs/HD-DVDs
Duration                                 : 1 h 31 min
Bit rate                                 : 30.4 kb/s
Count of elements                        : 1940
Stream size                              : 19.8 MiB (0%)
Title                                    : French
Language                                 : French
Default                                  : No
Forced                                   : No

Text #4
ID                                       : 6
Format                                   : PGS
Muxing mode                              : zlib
Codec ID                                 : S_HDMV/PGS
Codec ID/Info                            : Picture based subtitle format used on BDs/HD-DVDs
Duration                                 : 1 h 31 min
Bit rate                                 : 26.7 kb/s
Count of elements                        : 1884
Stream size                              : 17.5 MiB (0%)
Title                                    : Spanish
Language                                 : Spanish
Default                                  : No
Forced                                   : No

Menu
00:00:00.000                             : en:Chapter 01
00:06:54.539                             : en:Chapter 02
00:14:34.540                             : en:Chapter 03
00:23:01.755                             : en:Chapter 04
00:31:59.835                             : en:Chapter 05
00:41:24.941                             : en:Chapter 06
00:50:50.798                             : en:Chapter 07
00:57:12.471                             : en:Chapter 08
01:04:05.383                             : en:Chapter 09
01:12:14.539                             : en:Chapter 10
01:21:35.891                             : en:Chapter 11
01:29:31.700                             : en:Chapter 12
[/url][/url]



                                                                                                                                                                                                        
                                                                                                                                                                                                                                                                                                                                                                                                                                                                                                                                                                                                                                                                                                                                                                                                                                                        
be68e84b9ae71fb3384129a7608eec50.zip (60.5 KB, 下载次数: 0)

回复

使用道具 举报

小黑屋|西西论坛

本网站所有资源来自网络,如无意中侵犯了您的权益,请发邮件至 [email protected],立即清除相关链接

GMT+8, 2021-3-2 03:10 , Processed in 0.118026 second(s), 23 queries .

Powered by Discuz! X3.2

© 2001-2013 Comsenz Inc.

快速回复 返回顶部 返回列表