西西论坛

 找回密码
 立即注册
搜索

自由主义者:间谍的时代 A.Call.to.Spy.2019.720p.BluRay.x264.DTS-MT 8....

[复制链接]
电影首发 发表于 2021-2-7 14:35:07 | 显示全部楼层 |阅读模式
-->
帖子完整标题:自由主义者:间谍的时代 A.Call.to.Spy.2019.720p.BluRay.x264.DTS-MT 8.25GB


[/url]

◎译  名 自由主义者:间谍的时代/Liberté: A Time to Spy/二战女谍
◎片  名 A Call to Spy
◎年  代 2019
◎产  地 美国
◎类  别 剧情
◎语  言 英语
◎上映日期 2019-06-21(爱丁堡国际电影节) / 2020-10-02(美国)
◎IMDb评分  6.3/10 from 1540 users
◎  
◎豆瓣评分 6.2/10 from 264 users
◎ 
◎导  演 莉迪亚·迪恩·皮尔彻 Lydia Dean Pilcher
◎编  剧 莎拉·梅甘·托马斯 Sarah Megan Thomas
◎主  演 斯坦娜·卡蒂克 Stana Katic
       拉迪卡·艾普特 Radhika Apte
       萨缪尔·劳金 Samuel Roukin
       马蒂尔德·奥利维耶 Mathilde Ollivier

◎标  签 二战 | 间谍 | 美国 | 真人真事改编 | 谍战 | 战争 | 剧情 | 2019

◎简  介

  故事讲述一个狡猾的间谍招募者维拉·阿特金斯和她为丘吉尔的“秘密军队”挑选的两个女人的故事:勇敢的美国人弗吉尼亚霍尔和和平主义者努尔·伊纳亚特·汗。
Video
ID                                       : 1
Format                                   : AVC
Format/Info                              : Advanced Video Codec
Format profile                           :
Format settings                          : CABAC / 9 Ref Frames
Format settings, CABAC                   : Yes
Format settings, Reference frames        : 9 frames
Codec ID                                 : V_MPEG4/ISO/AVC
Duration                                 : 2 h 4 min
Bit rate                                 : 7 989 kb/s
Width                                    : 1 280 pixels
Height                                   : 692 pixels
Display aspect ratio                     : 1.85:1
Frame rate mode                          : Constant
Frame rate                               : 23.976 (24000/1001/189150) FPS
Color space                              : YUV
Chroma subsampling                       : 4:2:0
Bit depth                                : 8 bits
Scan type                                : Progressive
Bits/(Pixel*Frame)                       : 0.376
Stream size                              : 6.94 GiB (84%)
Writing library                          : x264 core 157 r2938 2b00a84  Mod
Encoding settings                        : cabac=1 / ref=9 / deblock=1:-3:-3 / analyse=0x3:0x133 / me=umh / subme=10 / psy=1 / psy_rd=1.05:0.00 / mixed_ref=1 / me_range=32 / chroma_me=1 / trellis=2 / 8x8dct=1 / cqm=0 / deadzone=21,11 / fast_pskip=0 / chroma_qp_offset=-2 / threads=12 / lookahead_threads=2 / sliced_threads=0 / nr=0 / decimate=0 / interlaced=0 / bluray_compat=0 / constrained_intra=0 / bframes=8 / b_pyramid=2 / b_adapt=2 / b_bias=0 / direct=3 / weightb=1 / open_gop=0 / weightp=2 / keyint=250 / keyint_min=24 / scenecut=40 / intra_refresh=0 / rc_lookahead=250 / rc=crf / mbtree=0 / crf=16.8 / qcomp=0.60 / qpmin=0 / qpmax=69 / qpstep=4 / vbv_maxrate=62500 / vbv_bufsize=78125 / crf_max=0.0 / nal_hrd=none / filler=0 / ip_ratio=1.30 / pb_ratio=1.20 / aq=3:0.80
Language                                 : English
Default                                  : Yes
Forced                                   : No
Color range                              : Limited
Color primaries                          : BT.709
Matrix coefficients                      : BT.709

Audio
ID                                       : 2
Format                                   : DTS
Format/Info                              : Digital Theater Systems
Codec ID                                 : A_DTS
Duration                                 : 2 h 4 min
Bit rate mode                            : Constant
Bit rate                                 : 1 509 kb/s
Channel(s)                               : 6 channels
Channel layout                           : C L R Ls Rs LFE
Sampling rate                            : 48.0 kHz
Frame rate                               : 93.750 FPS (512 SPF)
Bit depth                                : 24 bits
Compression mode                         : Lossy
Stream size                              : 1.31 GiB (16%)
Language                                 : English
Default                                  : Yes
Forced                                   : No

Text
ID                                       : 3
Format                                   : UTF-8
Codec ID                                 : S_TEXT/UTF8
Codec ID/Info                            : UTF-8 Plain Text
Duration                                 : 1 h 56 min
Bit rate                                 : 40 b/s
Count of elements                        : 1311
Stream size                              : 34.8 KiB (0%)
Title                                    : SRT
Language                                 : English
Default                                  : Yes
Forced                                   : No

Menu
00:00:00.000                             : en:Chapter 01
00:09:57.013                             : en:Chapter 02
00:20:29.145                             : en:Chapter 03
00:31:00.108                             : en:Chapter 04
00:40:00.440                             : en:Chapter 05
00:49:35.723                             : en:Chapter 06
01:01:28.143                             : en:Chapter 07
01:11:03.384                             : en:Chapter 08
01:19:59.920                             : en:Chapter 09
01:32:02.434                             : en:Chapter 10
01:40:38.532                             : en:Chapter 11
01:51:33.604                             : en:Chapter 12
[/url][/url][/url]



                                                                                                                                                                                                        
                                                                                                                                                                                                                                                                                                                                                                                                                                                                                                                                                                                                                                                                                                                                                                                                                                                        
0ce4d23394b0a23fffe95b1ab7e8fb71.zip (41.89 KB, 下载次数: 0)

回复

使用道具 举报

小黑屋|西西论坛

本网站所有资源来自网络,如无意中侵犯了您的权益,请发邮件至 [email protected],立即清除相关链接

GMT+8, 2021-2-28 21:18 , Processed in 0.092749 second(s), 23 queries .

Powered by Discuz! X3.2

© 2001-2013 Comsenz Inc.

快速回复 返回顶部 返回列表