西西论坛

 找回密码
 立即注册
搜索

恐雨 Fear.of.Rain.2021.720p.BluRay.x264.DTS-MT 4.34GB

[复制链接]
电影首发 发表于 2021-2-7 14:35:07 | 显示全部楼层 |阅读模式
-->
帖子完整标题:恐雨 Fear.of.Rain.2021.720p.BluRay.x264.DTS-MT 4.34GB


[/url]

◎译  名 恐雨/I Saw a Man with Yellow Eyes
◎片  名 Fear of Rain
◎年  代 2021
◎产  地 美国
◎类  别 剧情 / 惊悚 / 恐怖
◎语  言 英语
◎上映日期 2021-02-12(美国网络)
◎  
◎豆瓣评分 /10 from 0 users
◎ 
◎片  长 92分钟
◎导  演 卡斯蒂利·兰登 Castille Landon
◎编  剧 卡斯蒂利·兰登 Castille Landon
◎主  演 凯瑟琳·海格尔 Katherine Heigl
       麦迪森·伊瑟曼 Madison Iseman
       伊瑟尔·布罗萨德 Israel Broussard
       小哈里·康尼克 Harry Connick Jr.
       恩卡·奥库玛 Enuka Okuma
       欧根妮·邦杜兰特 Eugenie Bondurant
       Bianca D'Ambrosio
       杨明燊 Brian Yang
       Chiara D'Ambrosio

◎标  签 惊悚 | 恐怖 | 2021 | 美国 | 线上 | 美国电影 | 电影 | Movie

◎简  介

  A teenage girl living with schizophrenia begins to suspect her neighbor has kidnapped a child. Her parents try desperately to help her live a normal life, without exposing their own tragic secrets, and the only person who believes her is Caleb – a boy she isn’t even sure exists.
Video
ID                                       : 1
Format                                   : AVC
Format/Info                              : Advanced Video Codec
Format profile                           :
Format settings                          : CABAC / 9 Ref Frames
Format settings, CABAC                   : Yes
Format settings, Reference frames        : 9 frames
Codec ID                                 : V_MPEG4/ISO/AVC
Duration                                 : 1 h 49 min
Bit rate                                 : 4 188 kb/s
Width                                    : 1 280 pixels
Height                                   : 692 pixels
Display aspect ratio                     : 1.85:1
Frame rate mode                          : Constant
Frame rate                               : 23.976 (24000/1001/189150) FPS
Color space                              : YUV
Chroma subsampling                       : 4:2:0
Bit depth                                : 8 bits
Scan type                                : Progressive
Bits/(Pixel*Frame)                       : 0.197
Stream size                              : 3.19 GiB (73%)
Writing library                          : x264 core 157 r2938 2b00a84  Mod
Encoding settings                        : cabac=1 / ref=9 / deblock=1:-3:-3 / analyse=0x3:0x133 / me=umh / subme=10 / psy=1 / psy_rd=1.05:0.00 / mixed_ref=1 / me_range=32 / chroma_me=1 / trellis=2 / 8x8dct=1 / cqm=0 / deadzone=21,11 / fast_pskip=0 / chroma_qp_offset=-2 / threads=12 / lookahead_threads=2 / sliced_threads=0 / nr=0 / decimate=0 / interlaced=0 / bluray_compat=0 / constrained_intra=0 / bframes=8 / b_pyramid=2 / b_adapt=2 / b_bias=0 / direct=3 / weightb=1 / open_gop=0 / weightp=2 / keyint=250 / keyint_min=24 / scenecut=40 / intra_refresh=0 / rc_lookahead=250 / rc=crf / mbtree=0 / crf=16.8 / qcomp=0.60 / qpmin=0 / qpmax=69 / qpstep=4 / vbv_maxrate=62500 / vbv_bufsize=78125 / crf_max=0.0 / nal_hrd=none / filler=0 / ip_ratio=1.30 / pb_ratio=1.20 / aq=3:0.80
Language                                 : English
Default                                  : Yes
Forced                                   : No
Color range                              : Limited
Color primaries                          : BT.709
Matrix coefficients                      : BT.709

Audio
ID                                       : 2
Format                                   : DTS
Format/Info                              : Digital Theater Systems
Codec ID                                 : A_DTS
Duration                                 : 1 h 49 min
Bit rate mode                            : Constant
Bit rate                                 : 1 509 kb/s
Channel(s)                               : 6 channels
Channel layout                           : C L R Ls Rs LFE
Sampling rate                            : 48.0 kHz
Frame rate                               : 93.750 FPS (512 SPF)
Bit depth                                : 24 bits
Compression mode                         : Lossy
Stream size                              : 1.15 GiB (26%)
Language                                 : English
Default                                  : Yes
Forced                                   : No

Text
ID                                       : 3
Format                                   : UTF-8
Codec ID                                 : S_TEXT/UTF8
Codec ID/Info                            : UTF-8 Plain Text
Duration                                 : 1 h 43 min
Bit rate                                 : 50 b/s
Count of elements                        : 1215
Stream size                              : 38.5 KiB (0%)
Title                                    : SRT
Language                                 : English
Default                                  : Yes
Forced                                   : No

Menu
00:00:00.000                             : en:Chapter 01
00:05:26.201                             : en:Chapter 02
00:12:52.814                             : en:Chapter 03
00:18:18.514                             : en:Chapter 04
00:25:00.541                             : en:Chapter 05
00:30:33.457                             : en:Chapter 06
00:37:22.073                             : en:Chapter 07
00:44:46.100                             : en:Chapter 08
00:53:12.731                             : en:Chapter 09
00:58:59.828                             : en:Chapter 10
01:05:07.445                             : en:Chapter 11
01:12:19.835                             : en:Chapter 12
01:18:57.441                             : en:Chapter 13
01:24:32.234                             : en:Chapter 14
01:29:01.628                             : en:Chapter 15
01:40:44.664                             : en:Chapter 16
[/url][/url]



                                                                                                                                                                                                        
                                                                                                                                                                                                                                                                                                                                                                                                                                                                                                                                                                                                                                                                                                                                                                                                                                                        
83f22b3672b92278a4cb6363aa0eebd1.zip (44.04 KB, 下载次数: 0)

回复

使用道具 举报

小黑屋|西西论坛

本网站所有资源来自网络,如无意中侵犯了您的权益,请发邮件至 [email protected],立即清除相关链接

GMT+8, 2021-2-28 21:19 , Processed in 0.095430 second(s), 23 queries .

Powered by Discuz! X3.2

© 2001-2013 Comsenz Inc.

快速回复 返回顶部 返回列表