西西论坛

 找回密码
 立即注册
搜索

魔山历险 Whiskey.Mountain.1977.720p.BluRay.x264-ORBS 4.72GB

[复制链接]
电影首发 发表于 2021-2-5 20:16:28 | 显示全部楼层 |阅读模式
-->
帖子完整标题:魔山历险 Whiskey.Mountain.1977.720p.BluRay.x264-ORBS 4.72GB


[/url]

◎译  名 魔山历险
◎片  名 Whiskey Mountain
◎年  代 1977
◎产  地 美国
◎类  别 恐怖
◎语  言 英语
◎上映日期 1977
◎IMDb评分  5.2/10 from 176 users
◎  
◎豆瓣评分 /10 from 0 users
◎ 
◎片  长 USA: 95 分钟
◎导  演 威廉·格雷菲 William Grefe
◎编  剧 威廉·格雷菲 William Grefe
◎主  演 克里斯托弗·乔治 Christopher George
       普雷斯顿·皮尔斯 Preston Pierce
       罗伯塔·科林斯 Roberta Collins
       约翰·戴维斯·钱德勒 John Davis Chandler
       William Kerwin

◎标  签 美国电影 | 恐怖 | 被忽视的片子 | 惊悚

◎简  介

  暂无相关剧情介绍
Video
ID                                       : 1
Format                                   : AVC
Format/Info                              : Advanced Video Codec
Format profile                           :
Format settings                          : CABAC / 13 Ref Frames
Format settings, CABAC                   : Yes
Format settings, Reference frames        : 13 frames
Codec ID                                 : V_MPEG4/ISO/AVC
Duration                                 : 1 h 30 min
Bit rate                                 : 6 800 kb/s
Width                                    : 1 280 pixels
Height                                   : 482 pixels
Display aspect ratio                     : 2.656
Frame rate mode                          : Constant
Frame rate                               : 23.976 (24000/1001/189150) FPS
Color space                              : YUV
Chroma subsampling                       : 4:2:0
Bit depth                                : 8 bits
Scan type                                : Progressive
Bits/(Pixel*Frame)                       : 0.460
Stream size                              : 4.28 GiB (91%)
Writing library                          : x264 core 161 r3027 4121277
Encoding settings                        : cabac=1 / ref=13 / deblock=1:-3:-3 / analyse=0x3:0x133 / me=umh / subme=10 / psy=1 / psy_rd=1.20:0.00 / mixed_ref=1 / me_range=24 / chroma_me=1 / trellis=2 / 8x8dct=1 / cqm=0 / deadzone=21,11 / fast_pskip=0 / chroma_qp_offset=-2 / threads=6 / lookahead_threads=1 / sliced_threads=0 / nr=0 / decimate=0 / interlaced=0 / bluray_compat=0 / constrained_intra=0 / bframes=8 / b_pyramid=2 / b_adapt=2 / b_bias=0 / direct=3 / weightb=1 / open_gop=0 / weightp=2 / keyint=250 / keyint_min=23 / scenecut=40 / intra_refresh=0 / rc_lookahead=60 / rc=crf / mbtree=1 / crf=19.0 / qcomp=0.60 / qpmin=0 / qpmax=69 / qpstep=4 / ip_ratio=1.40 / aq=3:0.90
Default                                  : Yes
Forced                                   : No
Color range                              : Limited
Matrix coefficients                      : BT.709

Audio #1
ID                                       : 2
Format                                   : FLAC
Format/Info                              : Free Lossless Audio Codec
Codec ID                                 : A_FLAC
Duration                                 : 1 h 30 min
Bit rate mode                            : Variable
Bit rate                                 : 598 kb/s
Channel(s)                               : 1 channel
Channel layout                           : C
Sampling rate                            : 48.0 kHz
Frame rate                               : 11.719 FPS (4096 SPF)
Bit depth                                : 24 bits
Compression mode                         : Lossless
Stream size                              : 386 MiB (8%)
Writing library                          : libFLAC 1.3.2 (UTC 2017-01-01)
Language                                 : English
Default                                  : Yes
Forced                                   : No

Audio #2
ID                                       : 3
Format                                   : AAC LC
Format/Info                              : Advanced Audio Codec Low Complexity
Codec ID                                 : A_AAC-2
Duration                                 : 1 h 30 min
Bit rate                                 : 96.0 kb/s
Channel(s)                               : 2 channels
Channel layout                           : L R
Sampling rate                            : 48.0 kHz
Frame rate                               : 46.875 FPS (1024 SPF)
Compression mode                         : Lossy
Delay relative to video                  : 20 ms
Stream size                              : 61.6 MiB (1%)
Title                                    : Commentary
Language                                 : English
Default                                  : No
Forced                                   : No

Text
ID                                       : 4
Format                                   : PGS
Muxing mode                              : zlib
Codec ID                                 : S_HDMV/PGS
Codec ID/Info                            : Picture based subtitle format used on BDs/HD-DVDs
Duration                                 : 1 h 29 min
Bit rate                                 : 20.3 kb/s
Count of elements                        : 1494
Stream size                              : 13.1 MiB (0%)
Title                                    : SDH
Language                                 : English
Default                                  : No
Forced                                   : No

Menu
00:00:00.000                             : en:Chapter 01
00:07:58.812                             : en:Chapter 02
00:14:47.095                             : en:Chapter 03
00:22:03.697                             : en:Chapter 04
00:29:21.677                             : en:Chapter 05
00:39:03.299                             : en:Chapter 06
00:45:36.609                             : en:Chapter 07
00:53:40.843                             : en:Chapter 08
00:59:22.684                             : en:Chapter 09
01:05:14.369                             : en:Chapter 10
01:13:49.050                             : en:Chapter 11
01:20:47.301                             : en:Chapter 12
[/url]



                                                                                                                                                                                                        
                                                                                                                                                                                                                                                                                                                                                                                                                                                                                                                                                                                                                                                                                                                                                                                                                                                        
dd143c32c002e99322291612f8076e8c.zip (47.94 KB, 下载次数: 0)

回复

使用道具 举报

小黑屋|西西论坛

本网站所有资源来自网络,如无意中侵犯了您的权益,请发邮件至 [email protected],立即清除相关链接

GMT+8, 2021-2-28 20:25 , Processed in 0.087766 second(s), 23 queries .

Powered by Discuz! X3.2

© 2001-2013 Comsenz Inc.

快速回复 返回顶部 返回列表