西西论坛

 找回密码
 立即注册
搜索

杀手精英 The.Killer.Elite.1975.720p.BluRay.x264-GAZER 4.68GB

[复制链接]
电影首发 发表于 2021-2-5 20:16:28 | 显示全部楼层 |阅读模式
-->
帖子完整标题:杀手精英 The.Killer.Elite.1975.720p.BluRay.x264-GAZER 4.68GB


[/url]

◎译  名 杀手精英
◎片  名 The Killer Elite
◎年  代 1975
◎产  地 美国
◎类  别 剧情 / 动作 / 惊悚
◎语  言 英语
◎上映日期 1976-08-21
◎IMDb评分  6/10 from 5599 users
◎  
◎豆瓣评分 6.0/10 from 112 users
◎ 
◎片  长 122 分钟
◎导  演 萨姆·佩金帕 Sam Peckinpah
◎编  剧 马克·诺曼 Marc Norman / 斯特林·西利芬特 Stirling Silliphant
◎主  演 詹姆斯·肯恩 James Caan
       罗伯特·杜瓦尔 Robert Duvall
       鲍勃·霍斯金斯 Bob Hoskins
       阿瑟·希尔 Arthur Hill
       埃迪·多诺 Eddy Donno

◎标  签 动作 | 美国 | 犯罪 | Sam-Peckinpah | Sam_Peckinpah | 萨姆·佩金帕 | 特务 | 佩金法

◎简  介

  Mike Locken is one of the principal members of a group of freelance spies. A significant portion of their work is for the C.I.A. and while on a case for them, one of his friends turns on him and shoots him in the elbow and knee. His assignment, to protect someone, goes down in flames. He is nearly crippled, but with braces is able to again become mobile. For revenge as much as anything else, Mike goes after his ex-friend.
Video
ID                                       : 1
Format                                   : AVC
Format/Info                              : Advanced Video Codec
Format profile                           :
Format settings                          : CABAC / 11 Ref Frames
Format settings, CABAC                   : Yes
Format settings, Reference frames        : 11 frames
Codec ID                                 : V_MPEG4/ISO/AVC
Duration                                 : 2 h 3 min
Bit rate                                 : 5 145 kb/s
Width                                    : 1 280 pixels
Height                                   : 546 pixels
Display aspect ratio                     : 2.35:1
Frame rate mode                          : Constant
Frame rate                               : 23.976 (24000/1001/189150) FPS
Color space                              : YUV
Chroma subsampling                       : 4:2:0
Bit depth                                : 8 bits
Scan type                                : Progressive
Bits/(Pixel*Frame)                       : 0.307
Stream size                              : 4.43 GiB (95%)
Writing library                          : x264 core 161 r3027 4121277
Encoding settings                        : cabac=1 / ref=11 / deblock=1:-3:-3 / analyse=0x3:0x133 / me=umh / subme=10 / psy=1 / psy_rd=1.50:0.15 / mixed_ref=1 / me_range=24 / chroma_me=1 / trellis=2 / 8x8dct=1 / cqm=0 / deadzone=21,11 / fast_pskip=0 / chroma_qp_offset=-3 / threads=17 / lookahead_threads=2 / sliced_threads=0 / nr=0 / decimate=0 / interlaced=0 / bluray_compat=0 / constrained_intra=0 / bframes=8 / b_pyramid=2 / b_adapt=2 / b_bias=0 / direct=3 / weightb=1 / open_gop=0 / weightp=2 / keyint=250 / keyint_min=23 / scenecut=40 / intra_refresh=0 / rc_lookahead=60 / rc=crf / mbtree=1 / crf=17.0 / qcomp=0.60 / qpmin=0 / qpmax=69 / qpstep=4 / ip_ratio=1.40 / aq=3:0.50
Default                                  : Yes
Forced                                   : No
Color range                              : Limited
Matrix coefficients                      : BT.709

Audio
ID                                       : 2
Format                                   : FLAC
Format/Info                              : Free Lossless Audio Codec
Codec ID                                 : A_FLAC
Duration                                 : 2 h 3 min
Bit rate mode                            : Variable
Bit rate                                 : 263 kb/s
Channel(s)                               : 2 channels
Channel layout                           : L R
Sampling rate                            : 48.0 kHz
Frame rate                               : 11.719 FPS (4096 SPF)
Bit depth                                : 16 bits
Compression mode                         : Lossless
Stream size                              : 232 MiB (5%)
Writing library                          : libFLAC 1.3.2 (UTC 2017-01-01)
Language                                 : English
Default                                  : Yes
Forced                                   : No

Text #1
ID                                       : 3
Format                                   : PGS
Muxing mode                              : zlib
Codec ID                                 : S_HDMV/PGS
Codec ID/Info                            : Picture based subtitle format used on BDs/HD-DVDs
Duration                                 : 1 h 58 min
Bit rate                                 : 21.9 kb/s
Count of elements                        : 1761
Stream size                              : 18.5 MiB (0%)
Title                                    : SDH
Language                                 : English
Default                                  : No
Forced                                   : No

Text #2
ID                                       : 4
Format                                   : PGS
Muxing mode                              : zlib
Codec ID                                 : S_HDMV/PGS
Codec ID/Info                            : Picture based subtitle format used on BDs/HD-DVDs
Duration                                 : 2 h 0 min
Bit rate                                 : 21.4 kb/s
Count of elements                        : 1787
Stream size                              : 18.5 MiB (0%)
Language                                 : German
Default                                  : No
Forced                                   : No

Menu
00:00:00.000                             : en:Chapter 01
00:06:55.415                             : en:Chapter 02
00:18:30.109                             : en:Chapter 03
00:31:08.867                             : en:Chapter 04
00:41:02.460                             : en:Chapter 05
00:51:39.096                             : en:Chapter 06
01:00:54.651                             : en:Chapter 07
01:09:38.174                             : en:Chapter 08
01:21:20.876                             : en:Chapter 09
01:30:01.396                             : en:Chapter 10
01:44:11.245                             : en:Chapter 11
02:01:21.274                             : en:Chapter 12




                                                                                                                                                                                                        
                                                                                                                                                                                                                                                                                                                                                                                                                                                                                                                                                                                                                                                                                                                                                                                                                                                        
2da61c3b863c7d0fcbe099d777363b9f.zip (47.48 KB, 下载次数: 0)

回复

使用道具 举报

小黑屋|西西论坛

本网站所有资源来自网络,如无意中侵犯了您的权益,请发邮件至 [email protected],立即清除相关链接

GMT+8, 2021-2-28 20:16 , Processed in 0.087029 second(s), 23 queries .

Powered by Discuz! X3.2

© 2001-2013 Comsenz Inc.

快速回复 返回顶部 返回列表