西西论坛

 找回密码
 立即注册
搜索

贼杀贼 The.Valachi.Papers.1972.REMASTERED.720p.BluRay.x264-GAZER 6.35GB

[复制链接]
电影首发 发表于 2021-2-5 20:16:28 | 显示全部楼层 |阅读模式
-->
帖子完整标题:贼杀贼 The.Valachi.Papers.1972.REMASTERED.720p.BluRay.x264-GAZER 6.35GB


[/url]

◎译  名 贼杀贼
◎片  名 The Valachi Papers
◎年  代 1972
◎产  地 法国,意大利
◎类  别 剧情 / 犯罪
◎语  言 英语
◎上映日期 1972-01-06
◎IMDb评分  6.5/10 from 3116 users
◎  
◎豆瓣评分 /10 from 0 users
◎ 
◎片  长 France: 110 分钟
◎导  演 特伦斯·杨 Terence Young
◎编  剧 阿尔杜伊诺·马尤里 Arduino Maiuri / 马西莫·德·丽塔 Massimo De Rita / 彼得·马斯 Peter Maas / 斯蒂芬·盖勒 Stephen Geller
◎主  演 利诺·文图拉 Lino Ventura
       查尔斯·布朗森 Charles Bronson
       吉尔·爱兰德 Jill Ireland
       沃特·奇亚里 Walter Chiari
       约瑟夫·怀斯曼 Joseph Wiseman
       福斯托·托齐 Fausto Tozzi
       阿梅德奥·纳扎里 Amedeo Nazzari
       玛丽娅·巴克萨 María Baxa
       普佩拉·玛奇奥 Pupella Maggio
       杰拉尔德·S·奥洛克林 Gerald S. O'Loughlin
       马里奥·皮拉尔 Mario Pilar
       萨比娜·孙 Sabine Sun
       多梅尼科·鄂拿博纳 Franco Ressel
       Syl Lamont
       安杰洛·伊凡蒂 Angelo Infanti
       安东尼·道森 Anthony Dawson
       恩尼奥·安东内利 Ennio Antonelli
       Luciano Bonanni
       Arny Freeman
       布鲁诺·迪·鲁亚 Bruno Di Luia

◎标  签 法国 | 意大利 | 1972 | 黑帮 | 犯罪 | 法国电影 | 动作 | italien

◎简  介

  When Joe Valachi (Charles Bronson) has a price put on his head by Don Vito Genovese (Lino Ventura), he must take desperate steps to protect himself while in prison. An unsuccessful attempt to slit his throat puts him over the edge to break the sacred code of silence.
Video
ID                                       : 1
Format                                   : AVC
Format/Info                              : Advanced Video Codec
Format profile                           :
Format settings                          : CABAC / 9 Ref Frames
Format settings, CABAC                   : Yes
Format settings, Reference frames        : 9 frames
Codec ID                                 : V_MPEG4/ISO/AVC
Duration                                 : 2 h 5 min
Bit rate                                 : 6 512 kb/s
Width                                    : 1 280 pixels
Height                                   : 692 pixels
Display aspect ratio                     : 1.85:1
Frame rate mode                          : Constant
Frame rate                               : 23.976 (24000/1001/189150) FPS
Color space                              : YUV
Chroma subsampling                       : 4:2:0
Bit depth                                : 8 bits
Scan type                                : Progressive
Bits/(Pixel*Frame)                       : 0.307
Stream size                              : 5.71 GiB (90%)
Writing library                          : x264 core 161 r3027 4121277
Encoding settings                        : cabac=1 / ref=9 / deblock=1:-3:-3 / analyse=0x3:0x133 / me=umh / subme=10 / psy=1 / psy_rd=1.20:0.00 / mixed_ref=1 / me_range=24 / chroma_me=1 / trellis=2 / 8x8dct=1 / cqm=0 / deadzone=21,11 / fast_pskip=0 / chroma_qp_offset=-2 / threads=22 / lookahead_threads=3 / sliced_threads=0 / nr=0 / decimate=0 / interlaced=0 / bluray_compat=0 / constrained_intra=0 / bframes=8 / b_pyramid=2 / b_adapt=2 / b_bias=0 / direct=3 / weightb=1 / open_gop=0 / weightp=2 / keyint=250 / keyint_min=23 / scenecut=40 / intra_refresh=0 / rc_lookahead=60 / rc=crf / mbtree=1 / crf=18.0 / qcomp=0.60 / qpmin=0 / qpmax=69 / qpstep=4 / ip_ratio=1.40 / aq=3:0.90
Default                                  : Yes
Forced                                   : No
Color range                              : Limited
Matrix coefficients                      : BT.709

Audio #1
ID                                       : 2
Format                                   : FLAC
Format/Info                              : Free Lossless Audio Codec
Codec ID                                 : A_FLAC
Duration                                 : 2 h 5 min
Bit rate mode                            : Variable
Bit rate                                 : 600 kb/s
Channel(s)                               : 1 channel
Channel layout                           : C
Sampling rate                            : 48.0 kHz
Frame rate                               : 11.719 FPS (4096 SPF)
Bit depth                                : 24 bits
Compression mode                         : Lossless
Stream size                              : 539 MiB (8%)
Writing library                          : libFLAC 1.3.2 (UTC 2017-01-01)
Language                                 : English
Default                                  : Yes
Forced                                   : No

Audio #2
ID                                       : 3
Format                                   : AAC LC
Format/Info                              : Advanced Audio Codec Low Complexity
Codec ID                                 : A_AAC-2
Duration                                 : 2 h 5 min
Bit rate                                 : 101 kb/s
Channel(s)                               : 2 channels
Channel layout                           : L R
Sampling rate                            : 48.0 kHz
Frame rate                               : 46.875 FPS (1024 SPF)
Compression mode                         : Lossy
Delay relative to video                  : 20 ms
Stream size                              : 90.6 MiB (1%)
Title                                    : Commentary
Language                                 : English
Default                                  : No
Forced                                   : No

Text
ID                                       : 4
Format                                   : PGS
Muxing mode                              : zlib
Codec ID                                 : S_HDMV/PGS
Codec ID/Info                            : Picture based subtitle format used on BDs/HD-DVDs
Duration                                 : 2 h 5 min
Bit rate                                 : 48.1 kb/s
Count of elements                        : 4036
Stream size                              : 43.0 MiB (1%)
Title                                    : SDH
Language                                 : English
Default                                  : No
Forced                                   : No

Menu
00:00:00.000                             : en:Chapter 01
00:12:20.198                             : en:Chapter 02
00:20:54.837                             : en:Chapter 03
00:31:55.247                             : en:Chapter 04
00:42:25.543                             : en:Chapter 05
00:50:00.289                             : en:Chapter 06
01:02:56.106                             : en:Chapter 07
01:09:58.820                             : en:Chapter 08
01:20:07.678                             : en:Chapter 09
01:32:30.712                             : en:Chapter 10
01:43:57.064                             : en:Chapter 11
01:55:47.357                             : en:Chapter 12
[/url]



                                                                                                                                                                                                        
                                                                                                                                                                                                                                                                                                                                                                                                                                                                                                                                                                                                                                                                                                                                                                                                                                                        
e1f0da11e764e85b9176f24149e40cf8.zip (32.5 KB, 下载次数: 0)

回复

使用道具 举报

小黑屋|西西论坛

本网站所有资源来自网络,如无意中侵犯了您的权益,请发邮件至 [email protected],立即清除相关链接

GMT+8, 2021-2-28 19:51 , Processed in 0.100264 second(s), 23 queries .

Powered by Discuz! X3.2

© 2001-2013 Comsenz Inc.

快速回复 返回顶部 返回列表