西西论坛

 找回密码
 立即注册
搜索

麦克斯·克劳德的星际冒险 Max.Cloud.2020.1080p.BluRay.x264-SURCODE 5... ...

[复制链接]
电影首发 发表于 2021-2-4 23:30:02 | 显示全部楼层 |阅读模式
-->
帖子完整标题:麦克斯·克劳德的星际冒险 Max.Cloud.2020.1080p.BluRay.x264-SURCODE 5.66GB


[/url]

◎译  名 麦克斯·克劳德的星际冒险/Max Cloud
◎片  名 The Intergalactic Adventures of Max Cloud
◎年  代 2020
◎产  地 英国
◎类  别 喜剧 / 动作 / 科幻
◎语  言 英语
◎上映日期 2020-12-18(美国)
◎IMDb评分  6.1/10 from 3263 users
◎  
◎豆瓣评分 4.6/10 from 202 users
◎ 
◎导  演 马丁·欧文 Martin Owen
◎编  剧 马丁·欧文 Martin Owen / 萨莉·柯莱特 Sally Collett
◎主  演 斯科特·阿金斯 Scott Adkins
       约翰·汉纳 John Hannah
       拉什纳·林奇 Lashana Lynch
       艾略特·詹姆斯·朗格里奇 Elliot James Langridge
       弗朗茨·德拉姆 Franz Drameh
       伊莎贝尔·艾伦 Isabelle Allen
       萨莉·柯莱特 Sally Collett
       杰森·马扎 Jason Maza
       汤米·弗拉纳根 Tommy Flanagan
       山姆·哈兹尔丁 Sam Hazeldine
       安迪·奥修 Andi Osho
       马丁·福特 Martyn Ford
       露丝·霍洛克斯 Ruth Horrocks

◎标  签 科幻 | 动作 | 游戏 | 喜剧 | 美国 | 斯科特阿金斯 | 2020 | 星际

◎简  介

  一艘太空巡洋舰坠毁在了黑纳斯星球上,这是一个关押着整个银河系中最邪恶危险罪犯的星际监狱。大部分队员都在这场事故中遇难,全队只剩下飞船的驾驶员——星际英雄马克斯·克劳德,倒霉的厨师杰克和极不配合的指挥官雷克西。他们的任务很简单,那就是等待救援人员的到来,同时尽自己最大的努力阻止监狱中的囚犯登船,然而这可是马克斯·克劳德,他总有办法把事情复杂化。
Video
ID                                       : 1
Format                                   : AVC
Format/Info                              : Advanced Video Codec
Format profile                           :
Format settings                          : CABAC / 5 Ref Frames
Format settings, CABAC                   : Yes
Format settings, Reference frames        : 5 frames
Codec ID                                 : V_MPEG4/ISO/AVC
Duration                                 : 1 h 29 min
Bit rate                                 : 6 989 kb/s
Width                                    : 1 920 pixels
Height                                   : 800 pixels
Display aspect ratio                     : 2.40:1
Frame rate mode                          : Constant
Frame rate                               : 23.976 (24000/1001/189150) FPS
Color space                              : YUV
Chroma subsampling                       : 4:2:0
Bit depth                                : 8 bits
Scan type                                : Progressive
Bits/(Pixel*Frame)                       : 0.190
Stream size                              : 4.35 GiB (77%)
Writing library                          : x264 core 161 r3027 4121277
Encoding settings                        : cabac=1 / ref=5 / deblock=1:-3:-3 / analyse=0x3:0x133 / me=umh / subme=9 / psy=1 / psy_rd=1.00:0.00 / mixed_ref=1 / me_range=16 / chroma_me=1 / trellis=2 / 8x8dct=1 / cqm=0 / deadzone=21,11 / fast_pskip=0 / chroma_qp_offset=-2 / threads=25 / lookahead_threads=2 / sliced_threads=0 / nr=0 / decimate=1 / interlaced=0 / bluray_compat=0 / constrained_intra=0 / bframes=3 / b_pyramid=2 / b_adapt=2 / b_bias=0 / direct=3 / weightb=1 / open_gop=0 / weightp=2 / keyint=250 / keyint_min=23 / scenecut=40 / intra_refresh=0 / rc_lookahead=60 / rc=crf / mbtree=1 / crf=17.0 / qcomp=0.60 / qpmin=0 / qpmax=69 / qpstep=4 / ip_ratio=1.40 / aq=1:1.00
Language                                 : English
Default                                  : Yes
Forced                                   : No

Audio
ID                                       : 2
Format                                   : DTS XLL
Format/Info                              : Digital Theater Systems
Commercial name                          : DTS-HD Master Audio
Codec ID                                 : A_DTS
Duration                                 : 1 h 28 min
Bit rate mode                            : Variable
Bit rate                                 : 2 093 kb/s
Channel(s)                               : 6 channels
Channel layout                           : C L R Ls Rs LFE
Sampling rate                            : 48.0 kHz
Frame rate                               : 93.750 FPS (512 SPF)
Bit depth                                : 16 bits
Compression mode                         : Lossless
Stream size                              : 1.30 GiB (23%)
Language                                 : English
Default                                  : Yes
Forced                                   : No

Text #1
ID                                       : 3
Format                                   : PGS
Muxing mode                              : zlib
Codec ID                                 : S_HDMV/PGS
Codec ID/Info                            : Picture based subtitle format used on BDs/HD-DVDs
Duration                                 : 1 h 26 min
Bit rate                                 : 21.1 kb/s
Count of elements                        : 1886
Stream size                              : 13.1 MiB (0%)
Language                                 : German
Default                                  : No
Forced                                   : No

Text #2
ID                                       : 4
Format                                   : PGS
Muxing mode                              : zlib
Codec ID                                 : S_HDMV/PGS
Codec ID/Info                            : Picture based subtitle format used on BDs/HD-DVDs
Duration                                 : 1 h 14 min
Bit rate                                 : 524 b/s
Count of elements                        : 38
Stream size                              : 286 KiB (0%)
Title                                    : forced
Language                                 : German
Default                                  : No
Forced                                   : No

Menu
00:00:00.000                             : en:Chapter 01
00:07:16.686                             : en:Chapter 02
00:17:10.112                             : en:Chapter 03
00:24:49.655                             : en:Chapter 04
00:32:40.208                             : en:Chapter 05
00:41:34.409                             : en:Chapter 06
00:52:08.125                             : en:Chapter 07
01:00:21.952                             : en:Chapter 08
01:09:08.603                             : en:Chapter 09
01:18:37.421                             : en:Chapter 10
01:28:51.952                             : en:Chapter 11
[/url]



                                                                                                                                                                                                        
                                                                                                                                                                                                                                                                                                                                                                                                                                                                                                                                                                                                                                                                                                                                                                                                                                                        
267b3f2c72bc893b4e002b99fff5bded.zip (29 KB, 下载次数: 0)

回复

使用道具 举报

小黑屋|西西论坛

本网站所有资源来自网络,如无意中侵犯了您的权益,请发邮件至 [email protected],立即清除相关链接

GMT+8, 2021-3-9 09:35 , Processed in 0.090894 second(s), 23 queries .

Powered by Discuz! X3.2

© 2001-2013 Comsenz Inc.

快速回复 返回顶部 返回列表