西西论坛

 找回密码
 立即注册
搜索

[BD-4K] 一年生活 Life.In.A.Year.2020.2160p.AMZN.WEB-DL.x265.10bit.SDR.DDP5.1-SWTY...

[复制链接]
电影首发 发表于 2021-2-4 20:59:11 | 显示全部楼层 |阅读模式
-->
帖子完整标题:一年生活 Life.In.A.Year.2020.2160p.AMZN.WEB-DL.x265.10bit.SDR.DDP5.1-SWTYBLZ 8.50GB


[/url]

◎译  名 一年生活/Year in a Life/一年中的生活
◎片  名 Life in a Year
◎年  代 2020
◎产  地 美国
◎类  别 剧情 / 爱情
◎语  言 英语
◎上映日期 2020-11-27(美国)
◎IMDb评分  5.4/10 from 3345 users
◎  
◎豆瓣评分 6.1/10 from 223 users
◎ 
◎主  演 卡拉·迪瓦伊 Cara Delevingne
       贾登·史密斯 Jaden Smith
       尼娅·朗 Nia Long
       小库珀·古丁 Cuba Gooding Jr.
       克里斯·德埃利亚 Chris D'Elia
       罗伯特·菲茨杰拉德·迪格斯 RZA
       迈克·布瓦韦尔 Michael Boisvert
       莉亚·杜兹 Leah Doz
       李亚男·普瓦里埃·格林菲尔德 Leanne Poirier Greenfield
       马蒂·亚当斯 Marty Adams

◎标  签 卡抽 | 美国 | 青春 | 爱情 | CaraDelevingne | 2020 | boy贾登 | 剧情

◎简  介

  Daryn发现他爱的女孩Isabelle患病,所剩时日不多,彩色的长发也变成了光头。他对她展开了不懈追求,想让她剩下的日子过得充实、快乐。Isabelle一开始是拒绝的,然后……
Video
ID                                       : 1
Format                                   : HEVC
Format/Info                              : High Efficiency Video Coding
Format profile                           : @Main
Codec ID                                 : V_MPEGH/ISO/HEVC
Duration                                 : 1 h 47 min
Bit rate                                 : 10.7 Mb/s
Width                                    : 3 840 pixels
Height                                   : 1 600 pixels
Display aspect ratio                     : 2.40:1
Frame rate mode                          : Constant
Frame rate                               : 23.976 (24000/1001/189150) FPS
Standard                                 : NTSC
Color space                              : YUV
Chroma subsampling                       : 4:2:0
Bit depth                                : 8 bits
Bits/(Pixel*Frame)                       : 0.073
Stream size                              : 8.02 GiB (94%)
Writing library                          : x265 2.9_elemental9e0607aa5b6f:[Linux][GCC 4.8.5][64 bit] 8bit+10bit+12bit
Encoding settings                        : cpuid=1111039 / frame-threads=2 / wpp / no-pmode / no-pme / psnr / ssim / log-level=2 / csv / csv-log-level=2 / input-csp=1 / input-res=3840x1600 / interlace=0 / total-frames=0 / level-idc=50 / high-tier=1 / uhd-bd=0 / ref=5 / no-allow-non-conformance / no-repeat-headers / annexb / no-aud / no-hrd / info / hash=0 / no-temporal-layers / no-open-gop / min-keyint=61 / keyint=120 / gop-lookahead=0 / bframes=8 / b-adapt=2 / b-pyramid / bframe-bias=0 / rc-lookahead=120 / lookahead-slices=4 / scenecut=0 / radl=0 / no-intra-refresh / ctu=64 / min-cu-size=8 / rect / amp / max-tu-size=32 / tu-inter-depth=4 / tu-intra-depth=4 / limit-tu=4 / rdoq-level=2 / dynamic-rd=0.00 / no-ssim-rd / signhide / tskip / nr-intra=100 / nr-inter=600 / no-constrained-intra / strong-intra-smoothing / max-merge=3 / limit-refs=3 / limit-modes / me=3 / subme=3 / merange=57 / temporal-mvp / weightp / weightb / no-analyze-src-pics / deblock=0:0 / no-sao / no-sao-non-deblock / rd=4 / no-early-skip / no-rskip / no-fast-intra / tskip-fast / no-cu-lossless / b-intra / no-splitrd-skip / rdpenalty=0 / psy-rd=4.00 / psy-rdoq=10.00 / no-rd-refine / no-lossless / cbqpoffs=0 / crqpoffs=0 / rc=crf / crf=25.0 / qcomp=0.60 / qpstep=1 / stats-write=0 / stats-read=0 / vbv-maxrate=15000 / vbv-bufsize=20000 / vbv-init=0.9 / crf-max=0.0 / crf-min=0.0 / ipratio=1.10 / pbratio=1.00 / aq-mode=0 / aq-strength=1.50 / no-cutree / zone-count=0 / no-strict-cbr / qg-size=32 / rc-grain / qpmax=69 / qpmin=0 / const-vbv / sar=1 / overscan=0 / videoformat=2 / range=0 / colorprim=1 / transfer=1 / colormatrix=1 / chromaloc=0 / display-window=0 / max-cll=0,0 / min-luma=0 / max-luma=255 / log2-max-poc-lsb=8 / vui-timing-info / vui-hrd-info / slices=1 / opt-qp-pps / no-opt-ref-list-length-pps / no-multi-pass-opt-rps / scenecut-bias=0.05 / no-opt-cu-delta-qp / no-aq-motion / no-hdr / no-hdr-opt / no-dhdr10-opt / no-idr-recovery-sei / analysis-reuse-level=5 / scale-factor=0 / refine-intra=0 / refine-inter=0 / refine-mv=0 / no-limit-sao / ctu-info=0 / no-lowpass-dct / refine-mv-type=0 / copy-pic=1 / max-ausize-factor=1.0 / no-dynamic-refine / no-single-sei
Default                                  : Yes
Forced                                   : No
Color range                              : Limited
Color primaries                          : BT.709
Transfer characteristics                 : BT.709
Matrix coefficients                      : BT.709

Audio
ID                                       : 2
Format                                   : E-AC-3
Format/Info                              : Enhanced AC-3
Commercial name                          : Dolby Digital Plus
Codec ID                                 : A_EAC3
Duration                                 : 1 h 47 min
Bit rate mode                            : Constant
Bit rate                                 : 640 kb/s
Channel(s)                               : 6 channels
Channel layout                           : L R C LFE Ls Rs
Sampling rate                            : 48.0 kHz
Frame rate                               : 31.250 FPS (1536 SPF)
Compression mode                         : Lossy
Stream size                              : 492 MiB (6%)
Title                                    : DDP 5.1
Language                                 : English
Service kind                             : Complete Main
Default                                  : Yes
Forced                                   : No

Text
ID                                       : 3
Format                                   : UTF-8
Codec ID                                 : S_TEXT/UTF8
Codec ID/Info                            : UTF-8 Plain Text
Duration                                 : 1 h 44 min
Bit rate                                 : 77 b/s
Count of elements                        : 1861
Stream size                              : 59.3 KiB (0%)
Title                                    : SDH
Language                                 : English
Default                                  : No
Forced                                   : No

Menu
00:00:00.000                             : en:Studio Logo
00:00:42.000                             : en:Scene 2
00:03:13.000                             : en:Scene 3
00:10:14.000                             : en:Scene 4
00:15:45.000                             : en:Scene 5
00:17:59.000                             : en:Scene 6
00:24:15.000                             : en:Scene 7
00:25:20.000                             : en:Scene 8
00:29:03.000                             : en:Scene 9
00:33:07.000                             : en:Scene 10
00:43:42.000                             : en:Scene 11
00:47:16.000                             : en:Scene 12
00:54:31.000                             : en:Scene 13
01:02:05.000                             : en:Scene 14
01:04:14.000                             : en:Scene 15
01:11:52.000                             : en:Scene 16
01:16:20.000                             : en:Scene 17
01:20:11.000                             : en:Scene 18
01:23:46.000                             : en:Scene 19
01:29:05.000                             : en:Scene 20
01:41:26.000                             : en:End Credits
[/url][/url]



                                                                                                                                                                                                        
                                                                                                                                                                                                                                                                                                                                                                                                                                                                                                                                                                                                                                                                                                                                                                                                                                                        
201de9dab270345c77e4ad5c13c1017c.zip (43.24 KB, 下载次数: 0)

回复

使用道具 举报

小黑屋|西西论坛

本网站所有资源来自网络,如无意中侵犯了您的权益,请发邮件至 [email protected],立即清除相关链接

GMT+8, 2021-3-1 23:59 , Processed in 0.097215 second(s), 23 queries .

Powered by Discuz! X3.2

© 2001-2013 Comsenz Inc.

快速回复 返回顶部 返回列表