西西论坛

 找回密码
 立即注册
搜索

让他走 Let.Him.Go.2020.1080p.BluRay.x264-PiGNUS 8.67GB

[复制链接]
电影首发 发表于 2021-2-3 23:23:43 | 显示全部楼层 |阅读模式
-->
帖子完整标题:让他走 Let.Him.Go.2020.1080p.BluRay.x264-PiGNUS 8.67GB


[/url]

◎译  名 让他走
◎片  名 Let Him Go
◎年  代 2020
◎产  地 美国
◎类  别 剧情 / 惊悚 / 犯罪
◎语  言 英语
◎上映日期 2020-11-06(美国)
◎IMDb评分  6.7/10 from 9964 users
◎  
◎豆瓣评分 6.9/10 from 1543 users
◎ 
◎片  长 114分钟
◎导  演 托马斯·伯祖查 Thomas Bezucha
◎编  剧 托马斯·伯祖查 Thomas Bezucha / 拉里·沃森 Larry Watson
◎主  演 戴安·琳恩 Diane Lane
       凯文·科斯特纳 Kevin Costner
       莱丝利·曼维尔 Lesley Manville
       凯莉·卡特 Kayli Carter
       波波·斯图尔特 BooBoo Stewart
       杰弗里·多诺万 Jeffrey Donovan
       威尔·布里顿 Will Brittain
       亚当·斯塔福德 Adam Stafford
       布拉德利·斯泰克尔 Bradley Stryker
       格雷格·劳森 Greg Lawson
       瑞恩·诺斯柯特 Ryan Northcott

◎标  签 凯文·科斯特纳 | 犯罪 | 剧情 | 美国 | 惊悚 | 2020 | 美国电影 | 戴安·琳恩

◎简  介

  基于Larry Watson所著同名小说,讲述退休警长乔治·布莱克利奇和妻子玛格丽特在失去儿子后,离开蒙大拿州的牧场,去达科他州寻找与外界隔离的危险一家人,解救他们年幼的孙子。而当他们到达目的地,发现那家人并没有意愿放人。
Video
ID                                       : 1
Format                                   : AVC
Format/Info                              : Advanced Video Codec
Format profile                           :
Format settings                          : CABAC / 5 Ref Frames
Format settings, CABAC                   : Yes
Format settings, Reference frames        : 5 frames
Codec ID                                 : V_MPEG4/ISO/AVC
Duration                                 : 1 h 53 min
Bit rate                                 : 6 414 kb/s
Width                                    : 1 920 pixels
Height                                   : 804 pixels
Display aspect ratio                     : 2.40:1
Frame rate mode                          : Constant
Frame rate                               : 23.976 (24000/1001/189150) FPS
Color space                              : YUV
Chroma subsampling                       : 4:2:0
Bit depth                                : 8 bits
Scan type                                : Progressive
Bits/(Pixel*Frame)                       : 0.173
Stream size                              : 5.09 GiB (59%)
Writing library                          : x264 core 161 r3027 4121277
Encoding settings                        : cabac=1 / ref=5 / deblock=1:-3:-3 / analyse=0x3:0x133 / me=umh / subme=9 / psy=1 / psy_rd=1.00:0.00 / mixed_ref=1 / me_range=16 / chroma_me=1 / trellis=2 / 8x8dct=1 / cqm=0 / deadzone=21,11 / fast_pskip=1 / chroma_qp_offset=-2 / threads=25 / lookahead_threads=2 / sliced_threads=0 / nr=0 / decimate=1 / interlaced=0 / bluray_compat=0 / constrained_intra=0 / bframes=3 / b_pyramid=2 / b_adapt=2 / b_bias=0 / direct=3 / weightb=1 / open_gop=0 / weightp=2 / keyint=250 / keyint_min=23 / scenecut=40 / intra_refresh=0 / rc_lookahead=60 / rc=crf / mbtree=1 / crf=15.0 / qcomp=0.60 / qpmin=0 / qpmax=69 / qpstep=4 / ip_ratio=1.40 / aq=1:1.00
Default                                  : Yes
Forced                                   : No

Audio
ID                                       : 2
Format                                   : DTS XLL
Format/Info                              : Digital Theater Systems
Commercial name                          : DTS-HD Master Audio
Codec ID                                 : A_DTS
Duration                                 : 1 h 53 min
Bit rate mode                            : Variable
Bit rate                                 : 4 459 kb/s
Channel(s)                               : 8 channels
Channel layout                           : C L R LFE Lb Rb Lss Rss
Sampling rate                            : 48.0 kHz
Frame rate                               : 93.750 FPS (512 SPF)
Bit depth                                : 24 bits
Compression mode                         : Lossless
Stream size                              : 3.54 GiB (41%)
Language                                 : English
Default                                  : Yes
Forced                                   : No

Text #1
ID                                       : 3
Format                                   : PGS
Muxing mode                              : zlib
Codec ID                                 : S_HDMV/PGS
Codec ID/Info                            : Picture based subtitle format used on BDs/HD-DVDs
Duration                                 : 1 h 45 min
Bit rate                                 : 32.5 kb/s
Count of elements                        : 2480
Stream size                              : 24.6 MiB (0%)
Title                                    : English SDH
Language                                 : English
Default                                  : No
Forced                                   : No

Text #2
ID                                       : 4
Format                                   : PGS
Muxing mode                              : zlib
Codec ID                                 : S_HDMV/PGS
Codec ID/Info                            : Picture based subtitle format used on BDs/HD-DVDs
Duration                                 : 1 h 52 min
Bit rate                                 : 27.9 kb/s
Count of elements                        : 2400
Stream size                              : 22.6 MiB (0%)
Title                                    : Spanish
Language                                 : Spanish
Default                                  : No
Forced                                   : No

Text #3
ID                                       : 5
Format                                   : PGS
Muxing mode                              : zlib
Codec ID                                 : S_HDMV/PGS
Codec ID/Info                            : Picture based subtitle format used on BDs/HD-DVDs
Duration                                 : 1 h 52 min
Bit rate                                 : 27.2 kb/s
Count of elements                        : 2254
Stream size                              : 22.0 MiB (0%)
Title                                    : French
Language                                 : French
Default                                  : No
Forced                                   : No

Text #4
ID                                       : 6
Format                                   : PGS
Muxing mode                              : zlib
Codec ID                                 : S_HDMV/PGS
Codec ID/Info                            : Picture based subtitle format used on BDs/HD-DVDs
Duration                                 : 1 h 47 min
Bit rate                                 : 48 b/s
Count of elements                        : 6
Stream size                              : 37.9 KiB (0%)
Title                                    : French
Language                                 : French
Default                                  : No
Forced                                   : No

Menu
00:00:00.000                             : en:Chapter 01
00:06:05.448                             : en:Chapter 02
00:12:56.734                             : en:Chapter 03
00:18:12.049                             : en:Chapter 04
00:23:22.735                             : en:Chapter 05
00:29:00.238                             : en:Chapter 06
00:34:42.247                             : en:Chapter 07
00:38:45.657                             : en:Chapter 08
00:42:19.454                             : en:Chapter 09
00:45:53.584                             : en:Chapter 10
00:53:16.318                             : en:Chapter 11
00:58:57.242                             : en:Chapter 12
01:06:27.317                             : en:Chapter 13
01:12:55.246                             : en:Chapter 14
01:19:46.573                             : en:Chapter 15
01:23:43.352                             : en:Chapter 16
01:31:51.172                             : en:Chapter 17
01:40:26.562                             : en:Chapter 18
01:45:31.450                             : en:Chapter 19
01:47:58.305                             : en:Chapter 20
01:53:37.060                             : en:Chapter 21
[/url]



                                                                                                                                                                                                        
                                                                                                                                                                                                                                                                                                                                                                                                                                                                                                                                                                                                                                                                                                                                                                                                                                                        
4b0e3dac9694cf7c017a348f0c0d665f.zip (44.03 KB, 下载次数: 0)

回复

使用道具 举报

小黑屋|西西论坛

本网站所有资源来自网络,如无意中侵犯了您的权益,请发邮件至 [email protected],立即清除相关链接

GMT+8, 2021-3-2 03:14 , Processed in 0.098704 second(s), 23 queries .

Powered by Discuz! X3.2

© 2001-2013 Comsenz Inc.

快速回复 返回顶部 返回列表