西西论坛

 找回密码
 立即注册
搜索

特斯拉/电力之父 Tesla.2020.PROPER.1080p.BluRay.x264-PiGNUS 15.79GB

[复制链接]
电影首发 发表于 2021-2-3 23:23:43 | 显示全部楼层 |阅读模式
-->
帖子完整标题:特斯拉/电力之父 Tesla.2020.PROPER.1080p.BluRay.x264-PiGNUS 15.79GB


[/url]

◎译  名 特斯拉/电力之父
◎片  名 Tesla
◎年  代 2020
◎产  地 美国
◎类  别 剧情 / 传记
◎语  言 英语
◎上映日期 2020-01-27(圣丹斯国际电影节) / 2020-08-13(美国网络) / 2020-08-21(美国)
◎IMDb评分  5/10 from 5770 users
◎  
◎豆瓣评分 5.5/10 from 503 users
◎ 
◎片  长 103分钟
◎导  演 米歇尔·阿米瑞亚德 Michael Almereyda
◎编  剧 米歇尔·阿米瑞亚德 Michael Almereyda
◎主  演 伊桑·霍克 Ethan Hawke
       伊芙·休森 Eve Hewson
       凯尔·麦克拉克伦 Kyle MacLachlan
       汉娜·格罗斯 Hannah Gross
       约什·汉密尔顿 Josh Hamilton
       罗伊丝·史密斯 Lois Smith
       艾邦·摩斯-巴克拉赫 Ebon Moss-Bachrach
       吉姆·加菲根 Jim Gaffigan
       露西·沃特斯 Lucy Walters
       詹姆斯·乌尔班尼亚克 James Urbaniak
       唐尼·科沙瓦茨 Donnie Keshawarz
       丽贝卡·达扬 Rebecca Dayan
       约翰·帕拉迪诺 John Palladino
       文森·德·保罗 Vincent De Paul
       汤姆·法雷尔 Tom Farrell
       罗伯特·约翰·加拉格尔 Robert John Gallagher
       Michael Mastro

◎标  签 传记 | 特斯拉 | 美国 | 科学 | 2020 | 伊桑霍克 | 纪录片 | 电影

◎简  介

  故事聚焦电气工程师、发明家尼古拉·特斯拉的事业及个人生活。
Video
ID                                       : 1
Format                                   : AVC
Format/Info                              : Advanced Video Codec
Format profile                           :
Format settings                          : CABAC / 4 Ref Frames
Format settings, CABAC                   : Yes
Format settings, Reference frames        : 4 frames
Codec ID                                 : V_MPEG4/ISO/AVC
Duration                                 : 1 h 42 min
Bit rate                                 : 19.1 Mb/s
Width                                    : 1 920 pixels
Height                                   : 1 038 pixels
Display aspect ratio                     : 1.85:1
Frame rate mode                          : Constant
Frame rate                               : 23.976 (24000/1001/189150) FPS
Color space                              : YUV
Chroma subsampling                       : 4:2:0
Bit depth                                : 8 bits
Scan type                                : Progressive
Bits/(Pixel*Frame)                       : 0.399
Stream size                              : 13.6 GiB (86%)
Writing library                          : x264 core 161 r3027 4121277
Encoding settings                        : cabac=1 / ref=4 / deblock=1:-3:-3 / analyse=0x3:0x133 / me=umh / subme=9 / psy=1 / psy_rd=1.00:0.00 / mixed_ref=1 / me_range=16 / chroma_me=1 / trellis=2 / 8x8dct=1 / cqm=0 / deadzone=21,11 / fast_pskip=1 / chroma_qp_offset=-2 / threads=32 / lookahead_threads=2 / sliced_threads=0 / nr=0 / decimate=1 / interlaced=0 / bluray_compat=0 / constrained_intra=0 / bframes=3 / b_pyramid=2 / b_adapt=2 / b_bias=0 / direct=3 / weightb=1 / open_gop=0 / weightp=2 / keyint=250 / keyint_min=23 / scenecut=40 / intra_refresh=0 / rc_lookahead=60 / rc=crf / mbtree=1 / crf=17.5 / qcomp=0.60 / qpmin=0 / qpmax=69 / qpstep=4 / ip_ratio=1.40 / aq=1:1.00
Default                                  : Yes
Forced                                   : No

Audio
ID                                       : 2
Format                                   : DTS XLL
Format/Info                              : Digital Theater Systems
Commercial name                          : DTS-HD Master Audio
Codec ID                                 : A_DTS
Duration                                 : 1 h 42 min
Bit rate mode                            : Variable
Bit rate                                 : 2 950 kb/s
Channel(s)                               : 6 channels
Channel layout                           : C L R Ls Rs LFE
Sampling rate                            : 48.0 kHz
Frame rate                               : 93.750 FPS (512 SPF)
Bit depth                                : 24 bits
Compression mode                         : Lossless
Stream size                              : 2.11 GiB (13%)
Language                                 : English
Default                                  : Yes
Forced                                   : No

Text #1
ID                                       : 3
Format                                   : PGS
Muxing mode                              : zlib
Codec ID                                 : S_HDMV/PGS
Codec ID/Info                            : Picture based subtitle format used on BDs/HD-DVDs
Duration                                 : 1 h 36 min
Bit rate                                 : 35.8 kb/s
Count of elements                        : 2178
Stream size                              : 24.6 MiB (0%)
Title                                    : English SDH
Language                                 : English
Default                                  : No
Forced                                   : No

Text #2
ID                                       : 4
Format                                   : PGS
Muxing mode                              : zlib
Codec ID                                 : S_HDMV/PGS
Codec ID/Info                            : Picture based subtitle format used on BDs/HD-DVDs
Duration                                 : 1 h 34 min
Bit rate                                 : 36.9 kb/s
Count of elements                        : 2054
Stream size                              : 25.0 MiB (0%)
Title                                    : Spanish
Language                                 : Spanish
Default                                  : No
Forced                                   : No

Menu
00:00:00.000                             : en:Chapter 01
00:07:30.659                             : en:Chapter 02
00:15:32.265                             : en:Chapter 03
00:22:19.547                             : en:Chapter 04
00:30:30.704                             : en:Chapter 05
00:40:13.745                             : en:Chapter 06
00:48:36.580                             : en:Chapter 07
00:58:26.253                             : en:Chapter 08
01:06:46.294                             : en:Chapter 09
01:16:46.811                             : en:Chapter 10
01:24:59.928                             : en:Chapter 11
01:30:36.681                             : en:Chapter 12
01:42:29.685                             : en:Chapter 13
[/url]



                                                                                                                                                                                                        
                                                                                                                                                                                                                                                                                                                                                                                                                                                                                                                                                                                                                                                                                                                                                                                                                                                        
0d3b98791794f81a4898a433e2bd6aaa.zip (79.65 KB, 下载次数: 0)

回复

使用道具 举报

小黑屋|西西论坛

本网站所有资源来自网络,如无意中侵犯了您的权益,请发邮件至 [email protected],立即清除相关链接

GMT+8, 2021-3-9 08:49 , Processed in 0.094498 second(s), 23 queries .

Powered by Discuz! X3.2

© 2001-2013 Comsenz Inc.

快速回复 返回顶部 返回列表