西西论坛

 找回密码
 立即注册
搜索

午夜人 Midnighters.2017.720p.BluRay.x264-GETiT 1.30GB

[复制链接]
电影首发 发表于 2021-2-3 22:58:32 | 显示全部楼层 |阅读模式
-->
帖子完整标题:午夜人 Midnighters.2017.720p.BluRay.x264-GETiT 1.30GB


[/url]

◎译  名 午夜人/Revelers/午夜杀机(台)
◎片  名 Midnighters
◎年  代 2017
◎产  地 美国
◎类  别 恐怖
◎语  言 英语
◎上映日期 2017-06-19(洛杉矶电影节)
◎IMDb评分  5.4/10 from 1593 users
◎  
◎豆瓣评分 5.2/10 from 522 users
◎ 
◎片  长 94分钟
◎导  演 朱利叶斯·拉姆齐 Julius Ramsay
◎编  剧 阿尔斯通·拉姆齐 Alston Ramsay
◎主  演 艾丽克斯·埃索 Alex Essoe
       佩拉·哈莉-贾德林 Perla Haney-Jardine
       迪伦·麦蒂 Dylan McTee
       瓦德·霍尔顿 Ward Horton
       安德鲁·罗森博格 Andrew Rothenberg
       约瑟夫·李·安德森 Joseph Lee Anderson
       K·C·法尔达斯 K.C. Faldasz
       威廉·布鲁姆菲尔德 William Bloomfield
       戴维·斯帕多拉 David Spadora
       马修·迈尔斯 Matt Myers

◎标  签 惊悚 | 悬疑 | 犯罪 | 美国 | 人性 | 恐怖 | 2017 | 致敬希区柯克

◎简  介

  新年午夜,杰夫(Dylan McTee 饰)和琳德赛(艾丽克斯·埃索 Alex Essoe 饰)这对夫妻驱车行驶在漆黑的路上。两人只顾谈情双爱,没有认真看着前方,结果狠狠装上了一名陌生人。他们将伤者带上车,准备拉到最近的医院治疗,然而对方却在半路断了气。经过一番内心挣扎,他们将死者带回家中。杰夫发现汽车牌照丢在了现场,于是又驱车赶了过去,留妻子一人在家。就在这时,琳德赛的妹妹汉娜(佩拉·哈莉-贾德林 Perla Haney-Jardine 饰)回到家中,而本该死去的男人突然活了过来,向汉娜发起攻击。混乱之中,汉娜开枪射杀对方。
  
  事情似乎变得越来越复杂,杰夫尝试弄清对方的身份,结果却发现……
Video
ID                                       : 1
Format                                   : AVC
Format/Info                              : Advanced Video Codec
Format profile                           :
Format settings                          : CABAC / 8 Ref Frames
Format settings, CABAC                   : Yes
Format settings, Reference frames        : 8 frames
Codec ID                                 : V_MPEG4/ISO/AVC
Duration                                 : 1 h 33 min
Bit rate                                 : 1 348 kb/s
Width                                    : 1 280 pixels
Height                                   : 720 pixels
Display aspect ratio                     : 16:9
Frame rate mode                          : Constant
Frame rate                               : 23.976 (24000/1001/189150) FPS
Color space                              : YUV
Chroma subsampling                       : 4:2:0
Bit depth                                : 8 bits
Scan type                                : Progressive
Bits/(Pixel*Frame)                       : 0.061
Stream size                              : 900 MiB (68%)
Writing library                          : x264 core 161 r3018 db0d417
Encoding settings                        : cabac=1 / ref=8 / deblock=1:-3:-3 / analyse=0x3:0x133 / me=umh / subme=9 / psy=1 / psy_rd=1.00:0.00 / mixed_ref=1 / me_range=16 / chroma_me=1 / trellis=2 / 8x8dct=1 / cqm=0 / deadzone=21,11 / fast_pskip=1 / chroma_qp_offset=-2 / threads=9 / lookahead_threads=1 / sliced_threads=0 / nr=0 / decimate=1 / interlaced=0 / bluray_compat=0 / constrained_intra=0 / bframes=3 / b_pyramid=2 / b_adapt=2 / b_bias=0 / direct=3 / weightb=1 / open_gop=0 / weightp=2 / keyint=250 / keyint_min=23 / scenecut=40 / intra_refresh=0 / rc_lookahead=60 / rc=crf / mbtree=1 / crf=17.0 / qcomp=0.60 / qpmin=0 / qpmax=69 / qpstep=4 / ip_ratio=1.40 / aq=3:0.80
Language                                 : English
Default                                  : Yes
Forced                                   : No
Color range                              : Limited
Matrix coefficients                      : BT.709

Audio
ID                                       : 2
Format                                   : AC-3
Format/Info                              : Audio Coding 3
Commercial name                          : Dolby Digital
Codec ID                                 : A_AC3
Duration                                 : 1 h 33 min
Bit rate mode                            : Constant
Bit rate                                 : 640 kb/s
Channel(s)                               : 6 channels
Channel layout                           : L R C LFE Ls Rs
Sampling rate                            : 48.0 kHz
Frame rate                               : 31.250 FPS (1536 SPF)
Compression mode                         : Lossy
Stream size                              : 427 MiB (32%)
Title                                    : AC3
Language                                 : English
Service kind                             : Complete Main
Default                                  : Yes
Forced                                   : No

Menu
00:00:00.000                             : en:00:00:00.000
00:06:33.977                             : en:00:06:33.977
00:13:27.473                             : en:00:13:27.473
00:20:08.499                             : en:00:20:08.499
00:29:17.756                             : en:00:29:17.756
00:38:15.752                             : en:00:38:15.752
00:48:27.279                             : en:00:48:27.279
00:56:05.237                             : en:00:56:05.237
01:06:19.559                             : en:01:06:19.559
01:15:24.437                             : en:01:15:24.437
01:22:51.550                             : en:01:22:51.550
01:30:36.306                             : en:01:30:36.306
[/url]



                                                                                                                                                                                                        
                                                                                                                                                                                                                                                                                                                                                                                                                                                                                                                                                                                                                                                                                                                                                                                                                                                        
c725b98b9c65710cf65faf3b03280955.zip (13.65 KB, 下载次数: 0)

回复

使用道具 举报

小黑屋|西西论坛

本网站所有资源来自网络,如无意中侵犯了您的权益,请发邮件至 [email protected],立即清除相关链接

GMT+8, 2021-3-9 08:27 , Processed in 0.096152 second(s), 23 queries .

Powered by Discuz! X3.2

© 2001-2013 Comsenz Inc.

快速回复 返回顶部 返回列表