西西论坛

 找回密码
 立即注册
搜索

公羊 Rams.2020.720p.BluRay.x264.DTS-FGT 5.82GB

[复制链接]
电影首发 发表于 2021-2-2 22:51:00 | 显示全部楼层 |阅读模式
-->
帖子完整标题:公羊 Rams.2020.720p.BluRay.x264.DTS-FGT 5.82GB


[/url]

◎译  名 公羊
◎片  名 Rams
◎年  代 2020
◎产  地 澳大利亚
◎类  别 剧情
◎语  言 英语
◎上映日期 2020-10-29(澳大利亚)
◎IMDb评分  6.6/10 from 438 users
◎  
◎豆瓣评分 /10 from 0 users
◎ 
◎导  演 杰瑞米·西姆斯 Jeremy Sims
◎编  剧 格里莫·哈克纳尔森 Grímur Hákonarson
◎主  演 山姆·尼尔 Sam Neill
       米兰达·理查森 Miranda Richardson
       阿什·凯迪 Asher Keddie
       迈克尔·卡顿 Michael Caton
       海莉·麦克尔希尼 Hayley McElhinney
       韦恩·布莱尔 Wayne Blair
       里昂·福德 Leon Ford
       Travis McMahon

◎标  签 翻拍 | 澳大利亚电影 | 改编 | 剧情 | Cinema_2020

◎简  介

  由格里莫·哈克纳尔森自编自导的冰岛影片[公羊]将被翻拍成英文片。该片曾入围第68届戛纳电影节一种观众单元。电影讲述冰岛两位40年没有交谈的兄弟,为保护他们最爱的羊而冰释前嫌。该片的翻拍权被英国的WestEndFilms和澳大利亚的WBMC两家公司拿下,剧本将由Jules Duncan执笔,并将在西澳大利亚拍摄。
Video
ID                                       : 1
Format                                   : AVC
Format/Info                              : Advanced Video Codec
Format profile                           :
Format settings                          : CABAC / 4 Ref Frames
Format settings, CABAC                   : Yes
Format settings, Reference frames        : 4 frames
Codec ID                                 : V_MPEG4/ISO/AVC
Duration                                 : 1 h 58 min
Bit rate                                 : 5 500 kb/s
Width                                    : 1 280 pixels
Height                                   : 536 pixels
Display aspect ratio                     : 2.40:1
Frame rate mode                          : Constant
Frame rate                               : 24.000 FPS
Color space                              : YUV
Chroma subsampling                       : 4:2:0
Bit depth                                : 8 bits
Scan type                                : Progressive
Bits/(Pixel*Frame)                       : 0.334
Stream size                              : 4.57 GiB (78%)
Writing library                          : x264 core 148 r2795M aaa9aa8
Encoding settings                        : cabac=1 / ref=4 / deblock=1:-2:-2 / analyse=0x3:0x113 / me=umh / subme=9 / psy=1 / psy_rd=1.00:0.15 / mixed_ref=1 / me_range=16 / chroma_me=1 / trellis=2 / 8x8dct=1 / cqm=0 / deadzone=21,11 / fast_pskip=1 / chroma_qp_offset=-3 / threads=24 / lookahead_threads=3 / sliced_threads=0 / nr=0 / decimate=1 / interlaced=0 / bluray_compat=0 / constrained_intra=0 / bframes=3 / b_pyramid=2 / b_adapt=1 / b_bias=0 / direct=3 / weightb=1 / open_gop=0 / weightp=2 / keyint=250 / keyint_min=25 / scenecut=40 / intra_refresh=0 / rc_lookahead=50 / rc=2pass / mbtree=1 / bitrate=5500 / ratetol=1.0 / qcomp=0.60 / qpmin=0 / qpmax=69 / qpstep=4 / cplxblur=20.0 / qblur=0.5 / vbv_maxrate=31250 / vbv_bufsize=31250 / nal_hrd=none / filler=0 / ip_ratio=1.40 / aq=1:1.00
Language                                 : English
Default                                  : Yes
Forced                                   : No

Audio
ID                                       : 2
Format                                   : DTS
Format/Info                              : Digital Theater Systems
Codec ID                                 : A_DTS
Duration                                 : 1 h 58 min
Bit rate mode                            : Constant
Bit rate                                 : 1 509 kb/s
Channel(s)                               : 6 channels
Channel layout                           : C L R Ls Rs LFE
Sampling rate                            : 48.0 kHz
Frame rate                               : 93.750 FPS (512 SPF)
Bit depth                                : 16 bits
Compression mode                         : Lossy
Stream size                              : 1.25 GiB (22%)
Title                                    : DTS 5.1
Language                                 : English
Default                                  : Yes
Forced                                   : No

Text
ID                                       : 3
Format                                   : UTF-8
Codec ID                                 : S_TEXT/UTF8
Codec ID/Info                            : UTF-8 Plain Text
Duration                                 : 1 h 52 min
Bit rate                                 : 45 b/s
Count of elements                        : 1363
Stream size                              : 37.2 KiB (0%)
Title                                    : English-SRT
Language                                 : English
Default                                  : Yes
Forced                                   : No

Menu
00:00:00.000                             : en:Neighbours
00:06:42.708                             : en:Show
00:14:10.374                             : en:Suspicion
00:18:25.541                             : en:Target Practice
00:23:44.541                             : en:OJD
00:27:41.125                             : en:Reno
00:32:54.332                             : enestruction
00:38:35.083                             : en:Compensation
00:42:06.416                             : enull the Wool
00:47:04.000                             : en:Christmas
00:51:27.291                             : enate Visit
00:56:56.458                             : en:Romance
01:01:55.874                             : en:Moving On
01:07:09.375                             : en:Responsible
01:12:37.249                             : enrunken Load
01:16:48.166                             : en:Heritage
01:22:32.041                             : en:Backburn
01:26:54.874                             : en:All Good
01:31:53.000                             : eniscovery
01:37:16.750                             : en:Inspection
01:41:46.041                             : enroving
01:52:02.332                             : en:Spring
01:55:14.332                             : en:End Credits
[/url][/url][/url]



                                                                                                                                                                                                        
                                                                                                                                                                                                                                                                                                                                                                                                                                                                                                                                                                                                                                                                                                                                                                                                                                                        
816105751e82c7a8427c03943dcf8a5b.zip (29.71 KB, 下载次数: 0)

回复

使用道具 举报

小黑屋|西西论坛

本网站所有资源来自网络,如无意中侵犯了您的权益,请发邮件至 [email protected],立即清除相关链接

GMT+8, 2021-3-9 10:12 , Processed in 0.091873 second(s), 23 queries .

Powered by Discuz! X3.2

© 2001-2013 Comsenz Inc.

快速回复 返回顶部 返回列表