西西论坛

 找回密码
 立即注册
搜索

圣人莫德/暗黑圣女 Saint.Maud.2019.1080p.BluRay.x264.DTS-FGT 7.67GB

[复制链接]
电影首发 发表于 2021-2-2 20:14:52 | 显示全部楼层 |阅读模式
-->
帖子完整标题:圣人莫德/暗黑圣女 Saint.Maud.2019.1080p.BluRay.x264.DTS-FGT 7.67GB




◎译  名 圣人莫德/暗黑圣女(台)
◎片  名 Saint Maud
◎年  代 2019
◎产  地 英国
◎类  别 恐怖
◎语  言 英语
◎上映日期 2019-09-05(多伦多电影节) / 2020-07-17(美国) / 2021-02-12(美国网络)
◎IMDb评分  7.1/10 from 2882 users
◎  https://www.imdb.com/title/tt7557108/
◎豆瓣评分 6.5/10 from 65 users
◎ 
◎片  长 84分钟
◎导  演 罗斯·格拉斯 Rose Glass
◎编  剧 罗斯·格拉斯 Rose Glass
◎主  演 莫菲德·克拉克 Morfydd Clark
       詹妮弗·艾莉 Jennifer Ehle
       图尔洛夫·科维里 Turlough Convery
       莉莉·奈特 Lily Knight
       罗茜·桑塞姆 Rosie Sansom
       马库斯·赫顿 Marcus Hutton
       费丝·爱德华兹 Faith Edwards
       纲高向井 Takatsuna Mukai

◎标  签 恐怖 | 惊悚 | 宗教 | 英国 | A24 | 英国电影 | 2020 | 电影

◎简  介

  莫德是一名年轻的宗教信徒,她的职业是私人护理员,她在拯救迷人的病人阿曼达的灵魂时,对其产生了极为危险的迷恋。

◎获奖情况

  第23届英国独立电影奖 ?(2020)
  最佳英国独立电影(提名)
  最佳导演(提名) 罗斯·格拉斯
  最佳新人导演(提名) 罗斯·格拉斯
  最佳编剧(提名) 罗斯·格拉斯
  最佳女主角(提名) 莫菲德·克拉克
  最佳女配角(提名) 詹妮弗·艾莉
  最佳新人编剧(提名) 罗斯·格拉斯
  制片突破(提名)
  最佳选角(提名)
  最佳摄影
  最佳服装设计(提名)
  最佳剪辑(提名)
  最佳化妆与发型设计(提名)
  最佳音乐(提名)
  最佳艺术指导(提名)
  最佳音效(提名)
  最佳视效(提名)
  
  第41届伦敦影评人协会奖 ?(2021)
  年度电影(提名)
  年度导演(提名) 罗斯·格拉斯
  年度英国/爱尔兰电影(提名)
  年度编剧(提名) 罗斯·格拉斯
  年度女主角(提名) 莫菲德·克拉克
  年度女配角(提名) 詹妮弗·艾莉
  年度英国/爱尔兰女演员(提名) 莫菲德·克拉克
  年度突破英国/爱尔兰电影人(提名) 罗斯·格拉斯
  
  第24届美国在线影评人协会奖 ?(2021)
  最佳非北美上映影片
Video
ID                                       : 1
Format                                   : AVC
Format/Info                              : Advanced Video Codec
Format profile                           : [email protected]
Format settings                          : CABAC / 4 Ref Frames
Format settings, CABAC                   : Yes
Format settings, Reference frames        : 4 frames
Codec ID                                 : V_MPEG4/ISO/AVC
Duration                                 : 1 h 24 min
Bit rate                                 : 11.5 Mb/s
Width                                    : 1 920 pixels
Height                                   : 804 pixels
Display aspect ratio                     : 2.40:1
Frame rate mode                          : Constant
Frame rate                               : 24.000 FPS
Color space                              : YUV
Chroma subsampling                       : 4:2:0
Bit depth                                : 8 bits
Scan type                                : Progressive
Bits/(Pixel*Frame)                       : 0.310
Stream size                              : 6.78 GiB (88%)
Writing library                          : x264 core 148 r2748 97eaef2
Encoding settings                        : cabac=1 / ref=4 / deblock=1:-2:-2 / analyse=0x3:0x113 / me=umh / subme=9 / psy=1 / psy_rd=1.00:0.15 / mixed_ref=1 / me_range=16 / chroma_me=1 / trellis=2 / 8x8dct=1 / cqm=0 / deadzone=21,11 / fast_pskip=1 / chroma_qp_offset=-3 / threads=72 / lookahead_threads=3 / sliced_threads=0 / nr=0 / decimate=1 / interlaced=0 / bluray_compat=0 / constrained_intra=0 / bframes=3 / b_pyramid=2 / b_adapt=1 / b_bias=0 / direct=3 / weightb=1 / open_gop=0 / weightp=2 / keyint=250 / keyint_min=25 / scenecut=40 / intra_refresh=0 / rc_lookahead=50 / rc=2pass / mbtree=1 / bitrate=11500 / ratetol=1.0 / qcomp=0.60 / qpmin=0 / qpmax=69 / qpstep=4 / cplxblur=20.0 / qblur=0.5 / vbv_maxrate=31250 / vbv_bufsize=31250 / nal_hrd=none / filler=0 / ip_ratio=1.40 / aq=1:1.00
Language                                 : English
Default                                  : Yes
Forced                                   : No

Audio
ID                                       : 2
Format                                   : DTS
Format/Info                              : Digital Theater Systems
Codec ID                                 : A_DTS
Duration                                 : 1 h 24 min
Bit rate mode                            : Constant
Bit rate                                 : 1 509 kb/s
Channel(s)                               : 6 channels
Channel layout                           : C L R Ls Rs LFE
Sampling rate                            : 48.0 kHz
Frame rate                               : 93.750 FPS (512 SPF)
Bit depth                                : 24 bits
Compression mode                         : Lossy
Stream size                              : 911 MiB (12%)
Title                                    : DTS 5.1
Language                                 : English
Default                                  : Yes
Forced                                   : No

Text
ID                                       : 3
Format                                   : UTF-8
Codec ID                                 : S_TEXT/UTF8
Codec ID/Info                            : UTF-8 Plain Text
Duration                                 : 1 h 15 min
Bit rate                                 : 29 b/s
Count of elements                        : 567
Stream size                              : 16.2 KiB (0%)
Title                                    : English-SRT
Language                                 : English
Default                                  : Yes
Forced                                   : No

Menu
00:00:00.000                             : en:Chapter 01
00:06:40.958                             : en:Chapter 02
00:13:13.833                             : en:Chapter 03
00:18:36.750                             : en:Chapter 04
00:24:18.333                             : en:Chapter 05
00:30:39.583                             : en:Chapter 06
00:36:39.125                             : en:Chapter 07
00:43:20.666                             : en:Chapter 08
00:50:55.458                             : en:Chapter 09
00:57:53.875                             : en:Chapter 10
01:08:33.375                             : en:Chapter 11
01:15:49.125                             : en:Chapter 12




                                                                                                                                                                                                        
                                                                                                                                                                                                                                                                                                                                                                                                                                                                                                                                                                                                                                                                                                                                                                                                                                                        
4dd6cc014386727242df1fdad5a700bf.zip (38.98 KB, 下载次数: 0)

回复

使用道具 举报

小黑屋|西西论坛

本网站所有资源来自网络,如无意中侵犯了您的权益,请发邮件至 [email protected],立即清除相关链接

GMT+8, 2021-3-2 03:39 , Processed in 0.115158 second(s), 23 queries .

Powered by Discuz! X3.2

© 2001-2013 Comsenz Inc.

快速回复 返回顶部 返回列表