西西论坛

 找回密码
 立即注册
搜索

砍人快乐/互换身体 Freaky.2020.1080p.BluRay.x264.DTS-HD.MA.5.1-FGT 10.97GB ... ...

[复制链接]
电影首发 发表于 2021-2-2 20:14:52 | 显示全部楼层 |阅读模式
-->
帖子完整标题:砍人快乐/互换身体 Freaky.2020.1080p.BluRay.x264.DTS-HD.MA.5.1-FGT 10.97GB




◎译  名 砍人快乐/互换身体/交换身体/屠?姐上错身(港)/怪易(豆友译名)/换人杀砍砍(台)/移形幻影
◎片  名 Freaky
◎年  代 2020
◎产  地 美国
◎类  别 喜剧 / 惊悚 / 恐怖
◎语  言 英语
◎上映日期 2020-11-13(美国)
◎IMDb评分  6.3/10 from 21165 users
◎  https://www.imdb.com/title/tt10919380/
◎豆瓣评分 6.1/10 from 19797 users
◎ 
◎片  长 102分钟
◎导  演 克里斯托弗·兰登 Christopher Landon
◎编  剧 迈克尔·T·肯尼迪 Michael T. Kennedy / 克里斯托弗·兰登 Christopher Landon / 麦克·肯尼迪 Michael Kennedy
◎主  演 凯瑟琳·纽顿 Kathryn Newton
       文斯·沃恩 Vince Vaughn
       阿兰·卢克 Alan Ruck
       凯蒂·芬内朗 Katie Finneran
       米切尔·霍格 Mitchell Hoog
       尤赖亚·谢尔顿 Uriah Shelton
       米沙·奥谢洛维奇 Misha Osherovich
       梅丽莎·科拉佐 Melissa Collazo
       凯利·拉莫尔·威尔逊 Kelly Lamor Wilson
       汉娜·拉塞尔 Hannah Russell
       布鲁克·杰伊·泰勒 Brooke Jaye Taylor
       达娜·德罗里 Dana Drori
       塞莱斯特·奥康纳 Celeste O'Connor
       查尔斯·格林 Charles Green
       帕蒂·舍尔哈斯 Patti Schellhaas
       珍妮弗·皮尔斯·马尔萨斯 Jennifer Pierce Mathus
       塞莱斯特·赛德 Celeste Cid
       尼古拉斯·斯塔格尔 Nicholas Stargel
       戴恩·达文波特 Dane Davenport
       提姆·约翰森 Tim Johnson

◎标  签 惊悚 | 喜剧 | 美国 | 恐怖 | 2020 | 犯罪 | 搞笑 | 黑色幽默

◎简  介

  讲述高中女生和中年男子连环杀手交换身体的故事:女孩米莉成为镇上臭名昭著的杀手“屠夫”的新目标,他那把神秘古老的匕首没能杀掉米莉,导致两人互换身体后,她意识到自己只有一天的时间换回来,否则将永不可逆,而屠夫发现这具少女身体是杀人狂欢的完美掩护,两人使出浑身解数斗智斗勇。
Video
ID                                       : 1
Format                                   : AVC
Format/Info                              : Advanced Video Codec
Format profile                           : [email protected]
Format settings                          : CABAC / 4 Ref Frames
Format settings, CABAC                   : Yes
Format settings, Reference frames        : 4 frames
Codec ID                                 : V_MPEG4/ISO/AVC
Duration                                 : 1 h 42 min
Bit rate                                 : 11.5 Mb/s
Width                                    : 1 920 pixels
Height                                   : 804 pixels
Display aspect ratio                     : 2.40:1
Frame rate mode                          : Constant
Frame rate                               : 23.976 (24000/1001/189150) FPS
Color space                              : YUV
Chroma subsampling                       : 4:2:0
Bit depth                                : 8 bits
Scan type                                : Progressive
Bits/(Pixel*Frame)                       : 0.311
Stream size                              : 8.19 GiB (75%)
Writing library                          : x264 core 148 r2748 97eaef2
Encoding settings                        : cabac=1 / ref=4 / deblock=1:-2:-2 / analyse=0x3:0x113 / me=umh / subme=9 / psy=1 / psy_rd=1.00:0.15 / mixed_ref=1 / me_range=16 / chroma_me=1 / trellis=2 / 8x8dct=1 / cqm=0 / deadzone=21,11 / fast_pskip=1 / chroma_qp_offset=-3 / threads=72 / lookahead_threads=3 / sliced_threads=0 / nr=0 / decimate=1 / interlaced=0 / bluray_compat=0 / constrained_intra=0 / bframes=3 / b_pyramid=2 / b_adapt=1 / b_bias=0 / direct=3 / weightb=1 / open_gop=0 / weightp=2 / keyint=250 / keyint_min=25 / scenecut=40 / intra_refresh=0 / rc_lookahead=50 / rc=2pass / mbtree=1 / bitrate=11500 / ratetol=1.0 / qcomp=0.60 / qpmin=0 / qpmax=69 / qpstep=4 / cplxblur=20.0 / qblur=0.5 / vbv_maxrate=31250 / vbv_bufsize=31250 / nal_hrd=none / filler=0 / ip_ratio=1.40 / aq=1:1.00
Default                                  : Yes
Forced                                   : No

Audio
ID                                       : 2
ID in the original source medium         : 4352 (0x1100)
Format                                   : DTS XLL
Format/Info                              : Digital Theater Systems
Commercial name                          : DTS-HD Master Audio
Codec ID                                 : A_DTS
Duration                                 : 1 h 42 min
Bit rate mode                            : Variable
Bit rate                                 : 3 846 kb/s
Channel(s)                               : 6 channels
Channel layout                           : C L R Ls Rs LFE
Sampling rate                            : 48.0 kHz
Frame rate                               : 93.750 FPS (512 SPF)
Bit depth                                : 24 bits
Compression mode                         : Lossless
Stream size                              : 2.74 GiB (25%)
Title                                    : DTS-HD MA 5.1
Language                                 : English
Default                                  : Yes
Forced                                   : No
Original source medium                   : Blu-ray

Text #1
ID                                       : 3
Format                                   : UTF-8
Codec ID                                 : S_TEXT/UTF8
Codec ID/Info                            : UTF-8 Plain Text
Duration                                 : 1 h 36 min
Bit rate                                 : 51 b/s
Count of elements                        : 1220
Stream size                              : 36.9 KiB (0%)
Title                                    : English-SRT
Language                                 : English
Default                                  : Yes
Forced                                   : No

Text #2
ID                                       : 4
ID in the original source medium         : 4608 (0x1200)
Format                                   : PGS
Muxing mode                              : zlib
Codec ID                                 : S_HDMV/PGS
Codec ID/Info                            : Picture based subtitle format used on BDs/HD-DVDs
Duration                                 : 1 h 36 min
Bit rate                                 : 42.3 kb/s
Count of elements                        : 2917
Stream size                              : 29.4 MiB (0%)
Title                                    : English-PGS
Language                                 : English
Default                                  : No
Forced                                   : No
Original source medium                   : Blu-ray

Text #3
ID                                       : 5
ID in the original source medium         : 4609 (0x1201)
Format                                   : PGS
Muxing mode                              : zlib
Codec ID                                 : S_HDMV/PGS
Codec ID/Info                            : Picture based subtitle format used on BDs/HD-DVDs
Duration                                 : 1 h 41 min
Bit rate                                 : 31.6 kb/s
Count of elements                        : 2578
Stream size                              : 22.9 MiB (0%)
Title                                    : Spoanish-PGS
Language                                 : Spanish
Default                                  : No
Forced                                   : No
Original source medium                   : Blu-ray

Text #4
ID                                       : 6
ID in the original source medium         : 4610 (0x1202)
Format                                   : PGS
Muxing mode                              : zlib
Codec ID                                 : S_HDMV/PGS
Codec ID/Info                            : Picture based subtitle format used on BDs/HD-DVDs
Duration                                 : 1 h 41 min
Bit rate                                 : 26.4 kb/s
Count of elements                        : 2175
Stream size                              : 19.1 MiB (0%)
Title                                    : French-PGS
Language                                 : French
Default                                  : No
Forced                                   : No
Original source medium                   : Blu-ray

Menu
00:00:00.000                             : en:Chapter 01
00:04:57.755                             : en:Chapter 02
00:09:36.742                             : en:Chapter 03
00:15:32.640                             : en:Chapter 04
00:20:01.867                             : en:Chapter 05
00:25:14.721                             : en:Chapter 06
00:27:16.760                             : en:Chapter 07
00:30:58.314                             : en:Chapter 08
00:34:46.417                             : en:Chapter 09
00:42:44.144                             : en:Chapter 10
00:47:28.679                             : en:Chapter 11
00:52:28.603                             : en:Chapter 12
01:00:31.336                             : en:Chapter 13
01:04:13.891                             : en:Chapter 14
01:09:08.352                             : en:Chapter 15
01:14:19.496                             : en:Chapter 16
01:19:35.103                             : en:Chapter 17
01:24:09.461                             : en:Chapter 18
01:29:31.783                             : en:Chapter 19
01:35:59.211                             : en:Chapter 20




                                                                                                                                                                                                        
                                                                                                                                                                                                                                                                                                                                                                                                                                                                                                                                                                                                                                                                                                                                                                                                                                                        
9681b766129b26ad1e00a1092331ffed.zip (55.52 KB, 下载次数: 0)

回复

使用道具 举报

小黑屋|西西论坛

本网站所有资源来自网络,如无意中侵犯了您的权益,请发邮件至 [email protected],立即清除相关链接

GMT+8, 2021-3-2 03:11 , Processed in 0.092520 second(s), 23 queries .

Powered by Discuz! X3.2

© 2001-2013 Comsenz Inc.

快速回复 返回顶部 返回列表