西西论坛

 找回密码
 立即注册
搜索

[4K-原盘] 叶问2:宗师传奇 Ip.Man.2.2010.CHINESE.2160p.BluRay.REMUX.HEVC.DTS-HD.MA....

[复制链接]
电影首发 发表于 2021-2-1 20:48:49 | 显示全部楼层 |阅读模式
-->
帖子完整标题:叶问2:宗师传奇 Ip.Man.2.2010.CHINESE.2160p.BluRay.REMUX.HEVC.DTS-HD.MA.TrueHD.7.1.Atmos-FGT 53.45GB


[/url]

◎译  名 Ip Man 2/Yip Man 2/叶问2
◎片  名 叶问2:宗师传奇
◎年  代 2010
◎产  地 中国大陆,中国香港
◎类  别 动作 / 传记 / 历史
◎语  言 粤语,汉语普通话,英语
◎上映日期 2010-04-27(中国大陆)
◎IMDb评分  7.5/10 from 97826 users
◎  
◎豆瓣评分 7.3/10 from 218434 users
◎ 
◎片  长 108分钟
◎导  演 叶伟信 Wilson Yip
◎编  剧 黄子桓 Edmond Wong / 陈大利 Tai-lee Chan
◎主  演 甄子丹 Donnie Yen
       洪金宝 Sammo Hung Kam-Bo
       熊黛林 Lynn Hung
       黄晓明 Xiaoming Huang
       樊少皇 Siu-Wong Fan
       郑则仕 Kent Cheng
       敖嘉年 Kanin Ngo
       杜宇航 Yu-Hang To
       达伦·萨赫拉维 Darren Shahlavi
       释小龙 Siu Lung Sik
       任达华 Simon Yam
       郑家星 Carlson Cheng Ka-Sing
       陆梅芳 Meifang Lu
       陈浩 Hao Chen
       李泽 Ze Li
       罗莽 Meng Lo
       冯克安 Hark-On Fung
       黄子桓 Edmond Wong
       Charles Mayer
       布伟杰 Brian Thomas Burrell

◎标  签 动作 | 香港 | 功夫 | 2010 | 传记 | 武侠 | 剧情 | 励志

◎简  介

  叶问(甄子丹 饰)携家眷来到香港,艰难度日。叶问开武馆宣扬咏春拳术,但无人问津。某日,黄梁(黄晓明 饰)登门拜访,比武之后,甘愿携一班兄弟,拜在叶问门下。黄梁因故与洪拳门下斗殴,结果被捉。叶问来救,却巧遇昔日对手金山找(樊少皇 饰),两人冰释前嫌,却不想被洪拳掌门洪震南(洪金宝 饰)拦下,以致众人被警察(郑则仕 饰)拘捕。洪震南提醒叶问,欲在香港开武馆,必须接受各大门派挑战。于是叶问单刀赴会,最终与洪震南对决,不分伯仲,叶问因拒绝缴纳会费,而遭到洪门寻衅滋事,以致武馆被关。背地里,洪震南替英国警察操持华洋比赛,但始终未有报酬,深感不平。拳击冠军龙卷风来到中国,在比赛现场中侮辱中国武术,打伤中国拳师。洪震南挺身而住,血溅现场。为了中国武术的荣誉,叶问接受了龙卷风的挑衅,为民族大义而战……

◎获奖情况

  第47届台北金马影展 ?(2010)
  金马奖最佳动作设计 洪金宝
  
  第30届香港电影金像奖 ?(2011)
  最佳电影(提名)
  最佳导演(提名) 叶伟信
  最佳新演员(提名) 杜宇航
  最佳摄影(提名) 潘恒生
  最佳剪接 张嘉辉
  最佳美术指导(提名) 麦国强
  最佳动作设计 洪金宝
  最佳原创电影音乐(提名) 川井宪次
  最佳音响效果(提名) 李耀强?/?曾景祥
  最佳视觉效果(提名) 黄智亨
  
  第14届中国电影华表奖 ?(2011)
  优秀合拍片奖(提名)
  
  第5届亚洲电影大奖 ?(2011)
  最佳男配角 洪金宝
  
  第17届北京大学生电影节 ?(2010)
  最佳观赏效果奖(提名)
  最受大学生欢迎导演 叶伟信
  
  第1届豆瓣电影鑫像奖 ?(2011)
  豆渣单元最渣男演员(华语) 黄晓明
Video
ID                                       : 1
ID in the original source medium         : 4113 (0x1011)
Format                                   : HEVC
Format/Info                              : High Efficiency Video Coding
Format profile                           : Main @High
HDR format                               : SMPTE ST 2086, HDR10 compatible
Codec ID                                 : V_MPEGH/ISO/HEVC
Duration                                 : 1 h 48 min
Bit rate                                 : 52.5 Mb/s
Width                                    : 3 840 pixels
Height                                   : 2 160 pixels
Display aspect ratio                     : 16:9
Frame rate mode                          : Constant
Frame rate                               : 24.000 FPS
Color space                              : YUV
Chroma subsampling                       : 4:2:0 (Type 2)
Bit depth                                : 10 bits
Bits/(Pixel*Frame)                       : 0.264
Stream size                              : 39.7 GiB (74%)
Language                                 : English
Default                                  : No
Forced                                   : No
Color range                              : Limited
Color primaries                          : BT.2020
Transfer characteristics                 : PQ
Matrix coefficients                      : BT.2020 non-constant
Mastering display color primaries        : BT.2020
Mastering display luminance              : min: 0.0001 cd/m2, max: 1000 cd/m2
Maximum Content Light Level              : 399 cd/m2
Maximum Frame-Average Light Level        : 261 cd/m2
Original source medium                   : Blu-ray

Audio #1
ID                                       : 2
ID in the original source medium         : 4352 (0x1100)
Format                                   : MLP FBA 16-ch
Format/Info                              : Meridian Lossless Packing FBA with 16-channel presentation
Commercial name                          : Dolby TrueHD with Dolby Atmos
Codec ID                                 : A_TRUEHD
Duration                                 : 1 h 48 min
Bit rate mode                            : Variable
Bit rate                                 : 5 000 kb/s
Maximum bit rate                         : 7 242 kb/s
Channel(s)                               : 8 channels
Channel layout                           : L R C LFE Ls Rs Lb Rb
Sampling rate                            : 48.0 kHz
Frame rate                               : 1 200.000 FPS (40 SPF)
Compression mode                         : Lossless
Stream size                              : 3.78 GiB (7%)
Title                                    : TrueHD 7.1 Atmos
Language                                 : Chinese
Default                                  : Yes
Forced                                   : No
Original source medium                   : Blu-ray
Number of dynamic objects                : 11
Bed channel count                        : 1 channel
Bed channel configuration                : LFE

Audio #2
ID                                       : 3
Format                                   : DTS XLL
Format/Info                              : Digital Theater Systems
Commercial name                          : DTS-HD Master Audio
Codec ID                                 : A_DTS
Duration                                 : 1 h 48 min
Bit rate mode                            : Variable
Bit rate                                 : 4 620 kb/s
Channel(s)                               : 8 channels
Channel layout                           : C L R LFE Lb Rb Lss Rss
Sampling rate                            : 48.0 kHz
Frame rate                               : 93.750 FPS (512 SPF)
Bit depth                                : 24 bits
Compression mode                         : Lossless
Stream size                              : 3.49 GiB (7%)
Title                                    : DTS-HD MA 7.1
Language                                 : Chinese
Default                                  : No
Forced                                   : No

Audio #3
ID                                       : 4
ID in the original source medium         : 4352 (0x1100)
Format                                   : AC-3
Format/Info                              : Audio Coding 3
Commercial name                          : Dolby Digital
Codec ID                                 : A_AC3
Duration                                 : 1 h 48 min
Bit rate mode                            : Constant
Bit rate                                 : 640 kb/s
Channel(s)                               : 6 channels
Channel layout                           : L R C LFE Ls Rs
Sampling rate                            : 48.0 kHz
Frame rate                               : 31.250 FPS (1536 SPF)
Compression mode                         : Lossy
Stream size                              : 495 MiB (1%)
Title                                    : DD 5.1
Language                                 : Chinese
Service kind                             : Complete Main
Default                                  : No
Forced                                   : No
Original source medium                   : Blu-ray

Audio #4
ID                                       : 5
ID in the original source medium         : 4353 (0x1101)
Format                                   : DTS XLL
Format/Info                              : Digital Theater Systems
Commercial name                          : DTS-HD Master Audio
Codec ID                                 : A_DTS
Duration                                 : 1 h 48 min
Bit rate mode                            : Variable
Bit rate                                 : 2 432 kb/s
Channel(s)                               : 6 channels
Channel layout                           : C L R Ls Rs LFE
Sampling rate                            : 48.0 kHz
Frame rate                               : 93.750 FPS (512 SPF)
Bit depth                                : 16 bits
Compression mode                         : Lossless
Stream size                              : 1.84 GiB (3%)
Title                                    : DTS-HD MA 5.1
Language                                 : Chinese
Default                                  : No
Forced                                   : No
Original source medium                   : Blu-ray

Audio #5
ID                                       : 6
ID in the original source medium         : 4354 (0x1102)
Format                                   : DTS XLL
Format/Info                              : Digital Theater Systems
Commercial name                          : DTS-HD Master Audio
Codec ID                                 : A_DTS
Duration                                 : 1 h 48 min
Bit rate mode                            : Variable
Bit rate                                 : 2 395 kb/s
Channel(s)                               : 6 channels
Channel layout                           : C L R Ls Rs LFE
Sampling rate                            : 48.0 kHz
Frame rate                               : 93.750 FPS (512 SPF)
Bit depth                                : 16 bits
Compression mode                         : Lossless
Stream size                              : 1.81 GiB (3%)
Title                                    : DTS-HD MA 5.1
Language                                 : English
Default                                  : No
Forced                                   : No
Original source medium                   : Blu-ray

Audio #6
ID                                       : 7
Format                                   : AC-3
Format/Info                              : Audio Coding 3
Commercial name                          : Dolby Digital
Codec ID                                 : A_AC3
Duration                                 : 1 h 48 min
Bit rate mode                            : Constant
Bit rate                                 : 640 kb/s
Channel(s)                               : 6 channels
Channel layout                           : L R C LFE Ls Rs
Sampling rate                            : 48.0 kHz
Frame rate                               : 31.250 FPS (1536 SPF)
Compression mode                         : Lossy
Stream size                              : 495 MiB (1%)
Title                                    : DD 5.1
Language                                 : English
Service kind                             : Complete Main
Default                                  : No
Forced                                   : No

Audio #7
ID                                       : 8
ID in the original source medium         : 4355 (0x1103)
Format                                   : DTS XLL
Format/Info                              : Digital Theater Systems
Commercial name                          : DTS-HD Master Audio
Codec ID                                 : A_DTS
Duration                                 : 1 h 48 min
Bit rate mode                            : Variable
Bit rate                                 : 2 411 kb/s
Channel(s)                               : 6 channels
Channel layout                           : C L R Ls Rs LFE
Sampling rate                            : 48.0 kHz
Frame rate                               : 93.750 FPS (512 SPF)
Bit depth                                : 16 bits
Compression mode                         : Lossless
Stream size                              : 1.82 GiB (3%)
Title                                    : DD 5.1
Language                                 : Spanish
Default                                  : No
Forced                                   : No
Original source medium                   : Blu-ray

Text #1
ID                                       : 9
Format                                   : UTF-8
Codec ID                                 : S_TEXT/UTF8
Codec ID/Info                            : UTF-8 Plain Text
Duration                                 : 1 h 44 min
Bit rate                                 : 31 b/s
Count of elements                        : 970
Stream size                              : 24.4 KiB (0%)
Title                                    : English-SRT
Language                                 : English
Default                                  : Yes
Forced                                   : No

Text #2
ID                                       : 10
ID in the original source medium         : 4768 (0x12A0)
Format                                   : PGS
Muxing mode                              : zlib
Codec ID                                 : S_HDMV/PGS
Codec ID/Info                            : Picture based subtitle format used on BDs/HD-DVDs
Duration                                 : 1 h 44 min
Bit rate                                 : 24.4 kb/s
Count of elements                        : 1929
Stream size                              : 18.2 MiB (0%)
Title                                    : English-PGS
Language                                 : English
Default                                  : No
Forced                                   : No
Original source medium                   : Blu-ray

Text #3
ID                                       : 11
ID in the original source medium         : 4768 (0x12A0)
Format                                   : PGS
Muxing mode                              : zlib
Codec ID                                 : S_HDMV/PGS
Codec ID/Info                            : Picture based subtitle format used on BDs/HD-DVDs
Duration                                 : 1 h 44 min
Bit rate                                 : 1 365 b/s
Count of elements                        : 78
Stream size                              : 1.02 MiB (0%)
Title                                    : English For Dub-PGS
Language                                 : English
Default                                  : No
Forced                                   : No
Original source medium                   : Blu-ray

Text #4
ID                                       : 12
ID in the original source medium         : 4769 (0x12A1)
Format                                   : PGS
Muxing mode                              : zlib
Codec ID                                 : S_HDMV/PGS
Codec ID/Info                            : Picture based subtitle format used on BDs/HD-DVDs
Duration                                 : 1 h 44 min
Bit rate                                 : 33.5 kb/s
Count of elements                        : 2202
Stream size                              : 24.9 MiB (0%)
Title                                    : Spanish-PGS
Language                                 : Spanish
Default                                  : No
Forced                                   : No
Original source medium                   : Blu-ray

Menu
00:00:00.000                             : en:Chapter 01
00:09:28.000                             : en:Chapter 02
00:13:52.000                             : en:Chapter 03
00:19:08.000                             : en:Chapter 04
00:29:25.000                             : en:Chapter 05
00:36:25.000                             : en:Chapter 06
00:46:46.000                             : en:Chapter 07
01:01:40.000                             : en:Chapter 08
01:16:01.000                             : en:Chapter 09
01:19:54.000                             : en:Chapter 10
01:27:01.000                             : en:Chapter 11
01:44:58.000                             : en:Chapter 12




                                                                                                                                                                                                        
                                                                                                                                                                                                                                                                                                                                                                                                                                                                                                                                                                                                                                                                                                                                                                                                                                                        
2ebde1968ff3107f5ff57b731bf11395.zip (134.39 KB, 下载次数: 0)

回复

使用道具 举报

小黑屋|西西论坛

本网站所有资源来自网络,如无意中侵犯了您的权益,请发邮件至 [email protected],立即清除相关链接

GMT+8, 2021-2-26 02:20 , Processed in 0.103648 second(s), 23 queries .

Powered by Discuz! X3.2

© 2001-2013 Comsenz Inc.

快速回复 返回顶部 返回列表