西西论坛

 找回密码
 立即注册
搜索

[BD-4K] 为所应为/不作亏心事 Do.the.Right.Thing.1989.2160p.BluRay.x265.10bit....

[复制链接]
电影首发 发表于 2021-2-1 20:38:30 | 显示全部楼层 |阅读模式
-->
帖子完整标题:为所应为/不作亏心事 Do.the.Right.Thing.1989.2160p.BluRay.x265.10bit.SDR.DTS-X.7.1-SWTYBLZ 44.37GB


[/url]

◎译  名 为所应为/不作亏心事(港)/不做错事/循规蹈矩
◎片  名 Do the Right Thing
◎年  代 1989
◎产  地 美国
◎类  别 剧情 / 喜剧
◎语  言 英语,意大利语,西班牙语
◎上映日期 1989-05-19(戛纳电影节) / 1989-06-14(法国)
◎IMDb评分  8/10 from 89395 users
◎  
◎豆瓣评分 8.1/10 from 10262 users
◎ 
◎片  长 120 分钟
◎导  演 斯派克·李 Spike Lee
◎编  剧 斯派克·李 Spike Lee
◎主  演 丹尼·爱罗 Danny Aiello
       奥西·戴维斯 Ossie Davis
       露比·迪 Ruby Dee
       理查德·埃德森 Richard Edson
       吉安卡罗·埃斯波西托 Giancarlo Esposito
       斯派克·李 Spike Lee
       比尔·努恩 Bill Nunn
       约翰·特托罗 John Turturro
       保罗·本杰明 Paul Benjamin
       弗兰基·费森 Frankie Faison
       罗宾·哈里斯 Robin Harris
       茹瓦·李 Joie Lee
       米盖尔·桑多瓦尔 Miguel Sandoval
       里克·埃罗 Rick Aiello
       约翰·萨维奇 John Savage
       塞缪尔·杰克逊 Samuel L. Jackson
       罗茜·佩雷兹 Rosie Perez
       罗杰·格午埃文·史密斯 Roger Guenveur Smith
       史蒂夫·怀特 Steve White
       马丁·劳伦斯 Martin Lawrence
       伦纳德·L·托马斯 Leonard L. Thomas
       弗兰克·文森特 Frank Vincent
       理查德·哈伯森 Richard Habersham
       斯蒂夫·朴 Steve Park
       金妮·杨 Ginny Yang
       肖恩·埃利奥特 Shawn Elliott
       埃里克·德拉姆斯 Erik Dellums
       加里·帕斯托雷 Garry Pastore
       尼古拉斯·特图罗 Nicholas Turturro
       路易斯·安东尼奥·拉莫斯 Luis Antonio Ramos

◎标  签 美国 | 种族 | 1989 | 剧情 | 黑人 | 独立电影 | 1980s | 喜剧

◎简  介

  纽约布鲁克林黑人社区生活着各个族群的人:黑人、意大利移民、韩国人.....意大利移民Sal(丹尼·爱罗 Danny Aiello 饰)和他的两个儿子在这里经营一家比萨店很久了,Mookie(斯派克·李 Spike Lee 饰)在店里负责送外卖,经常和Sal的儿子闹矛盾。 Radio Raheem(Bill Nunn 饰)是一个喜欢提着一个收音机大声放着音乐到处走的年轻人。炎热的一天,黑人小伙Buggin' Out(吉安卡罗·埃斯波西托 Giancarlo Esposito 饰)发现比萨店墙上挂着的名人照片里没有一个黑人,十分不满;而Radio来到比萨店,却被Sal要求关掉收音机。心怀不满的Buggin' Out和Radio决定找Sal讨个说法,三人在争执中,Sal把Radio的收音机砸烂了。Radio大怒,便和Sal打了起来。警察赶来了,围观的人也越来越多,一场种族间的暴乱即将到来......
  
  本片被提名62届奥斯卡最佳男配角、最佳改编剧本,本片的成功使黑人导演斯派克李在好莱坞大放异彩。

◎获奖情况

  第62届奥斯卡金像奖 ?(1990)
  最佳男配角(提名) 丹尼·爱罗
  最佳原创剧本(提名) 斯派克·李
  
  第42届戛纳电影节 ?(1989)
  主竞赛单元金棕榈奖(提名) 斯派克·李
Video
ID                                       : 1
Format                                   : HEVC
Format/Info                              : High Efficiency Video Coding
Format profile                           : Main @High
Codec ID                                 : V_MPEGH/ISO/HEVC
Duration                                 : 1 h 59 min
Bit rate                                 : 46.8 Mb/s
Width                                    : 3 840 pixels
Height                                   : 2 076 pixels
Display aspect ratio                     : 1.85:1
Frame rate mode                          : Constant
Frame rate                               : 23.976 (24000/1001/189150) FPS
Color space                              : YUV
Chroma subsampling                       : 4:2:0
Bit depth                                : 10 bits
Bits/(Pixel*Frame)                       : 0.245
Stream size                              : 39.1 GiB (89%)
Writing library                          : x265 3.0ed72af837053:[Windows][GCC 8.2.0][64 bit] 10bit
Encoding settings                        : cpuid=1111039 / frame-threads=6 / numa-pools=40 / wpp / no-pmode / no-pme / no-psnr / no-ssim / log-level=2 / input-csp=1 / input-res=3840x2076 / interlace=0 / total-frames=172352 / level-idc=51 / high-tier=1 / uhd-bd=0 / ref=3 / no-allow-non-conformance / repeat-headers / annexb / aud / hrd / info / hash=0 / no-temporal-layers / no-open-gop / min-keyint=1 / keyint=24 / gop-lookahead=0 / bframes=4 / b-adapt=2 / b-pyramid / bframe-bias=0 / rc-lookahead=25 / lookahead-slices=4 / scenecut=40 / radl=0 / no-splice / no-intra-refresh / ctu=64 / min-cu-size=8 / no-rect / no-amp / max-tu-size=32 / tu-inter-depth=1 / tu-intra-depth=1 / limit-tu=0 / rdoq-level=0 / dynamic-rd=0.00 / no-ssim-rd / signhide / no-tskip / nr-intra=0 / nr-inter=0 / no-constrained-intra / strong-intra-smoothing / max-merge=2 / limit-refs=3 / no-limit-modes / me=1 / subme=2 / merange=57 / temporal-mvp / weightp / no-weightb / no-analyze-src-pics / deblock=0:0 / no-sao / no-sao-non-deblock / rd=3 / no-early-skip / rskip / no-fast-intra / no-tskip-fast / no-cu-lossless / no-b-intra / no-splitrd-skip / rdpenalty=0 / psy-rd=2.00 / psy-rdoq=0.00 / no-rd-refine / no-lossless / cbqpoffs=0 / crqpoffs=0 / rc=crf / crf=18.0 / qcomp=0.60 / qpstep=4 / stats-write=0 / stats-read=0 / vbv-maxrate=160000 / vbv-bufsize=160000 / vbv-init=0.9 / crf-max=0.0 / crf-min=0.0 / ipratio=1.40 / pbratio=1.30 / aq-mode=1 / aq-strength=1.00 / cutree / zone-count=0 / no-strict-cbr / qg-size=32 / no-rc-grain / qpmax=69 / qpmin=0 / no-const-vbv / sar=1 / overscan=0 / videoformat=5 / range=0 / colorprim=2 / transfer=2 / colormatrix=2 / chromaloc=0 / display-window=0 / max-cll=0,0 / min-luma=0 / max-luma=1023 / log2-max-poc-lsb=8 / vui-timing-info / vui-hrd-info / slices=1 / opt-qp-pps / opt-ref-list-length-pps / no-multi-pass-opt-rps / scenecut-bias=0.05 / no-opt-cu-delta-qp / no-aq-motion / no-hdr / no-hdr-opt / no-dhdr10-opt / no-idr-recovery-sei / analysis-reuse-level=5 / scale-factor=0 / refine-intra=0 / refine-inter=0 / refine-mv=0 / refine-ctu-distortion=0 / no-limit-sao / ctu-info=0 / no-lowpass-dct / refine-analysis-type=0 / copy-pic=1 / max-ausize-factor=1.0 / no-dynamic-refine / no-single-sei / no-hevc-aq / qp-adaptation-range=1.00
Default                                  : Yes
Forced                                   : No

Audio #1
ID                                       : 2
ID in the original source medium         : 4352 (0x1100)
Format                                   : DTS XLL X
Format/Info                              : Digital Theater Systems
Commercial name                          : DTS-HD Master Audio
Codec ID                                 : A_DTS
Duration                                 : 1 h 59 min
Bit rate mode                            : Variable
Bit rate                                 : 5 330 kb/s
Channel(s)                               : 8 channels
Channel(s)_Original                      : Object Based
ChannelLayout_Original                   : Object Based
Sampling rate                            : 48.0 kHz
Frame rate                               : 93.750 FPS (512 SPF)
Bit depth                                : 24 bits
Stream size                              : 4.46 GiB (10%)
Title                                    : DTS-X 7.1
Language                                 : English
Default                                  : Yes
Forced                                   : No
Original source medium                   : Blu-ray

Audio #2
ID                                       : 3
Format                                   : AC-3
Format/Info                              : Audio Coding 3
Commercial name                          : Dolby Digital
Codec ID                                 : A_AC3
Duration                                 : 1 h 59 min
Bit rate mode                            : Constant
Bit rate                                 : 640 kb/s
Channel(s)                               : 6 channels
Channel layout                           : L R C LFE Ls Rs
Sampling rate                            : 48.0 kHz
Frame rate                               : 31.250 FPS (1536 SPF)
Compression mode                         : Lossy
Stream size                              : 548 MiB (1%)
Title                                    : DD 5.1
Language                                 : English
Service kind                             : Complete Main
Default                                  : No
Forced                                   : No

Text #1
ID                                       : 4
Format                                   : UTF-8
Codec ID                                 : S_TEXT/UTF8
Codec ID/Info                            : UTF-8 Plain Text
Duration                                 : 1 h 49 min
Bit rate                                 : 87 b/s
Count of elements                        : 2000
Stream size                              : 69.8 KiB (0%)
Title                                    : English-SRT
Language                                 : English
Default                                  : Yes
Forced                                   : No

Text #2
ID                                       : 5
ID in the original source medium         : 4768 (0x12A0)
Format                                   : PGS
Muxing mode                              : zlib
Codec ID                                 : S_HDMV/PGS
Codec ID/Info                            : Picture based subtitle format used on BDs/HD-DVDs
Duration                                 : 1 h 53 min
Bit rate                                 : 59.2 kb/s
Count of elements                        : 4240
Stream size                              : 48.2 MiB (0%)
Title                                    : English-PGS
Language                                 : English
Default                                  : No
Forced                                   : No
Original source medium                   : Blu-ray

Text #3
ID                                       : 6
ID in the original source medium         : 4769 (0x12A1)
Format                                   : PGS
Muxing mode                              : zlib
Codec ID                                 : S_HDMV/PGS
Codec ID/Info                            : Picture based subtitle format used on BDs/HD-DVDs
Duration                                 : 1 h 49 min
Bit rate                                 : 48.0 kb/s
Count of elements                        : 3374
Stream size                              : 37.5 MiB (0%)
Title                                    : Spanish-PGS
Language                                 : Spanish
Default                                  : No
Forced                                   : No
Original source medium                   : Blu-ray

Text #4
ID                                       : 7
ID in the original source medium         : 4770 (0x12A2)
Format                                   : PGS
Muxing mode                              : zlib
Codec ID                                 : S_HDMV/PGS
Codec ID/Info                            : Picture based subtitle format used on BDs/HD-DVDs
Duration                                 : 1 h 49 min
Bit rate                                 : 50.5 kb/s
Count of elements                        : 3346
Stream size                              : 39.5 MiB (0%)
Title                                    : French-PGS
Language                                 : French
Default                                  : No
Forced                                   : No
Original source medium                   : Blu-ray

Menu
00:00:00.000                             : en:Chapter 01
00:04:21.928                             : en:Chapter 02
00:18:24.228                             : en:Chapter 03
00:24:51.615                             : en:Chapter 04
00:30:15.939                             : en:Chapter 05
00:36:28.102                             : en:Chapter 06
00:44:14.151                             : en:Chapter 07
00:49:56.743                             : en:Chapter 08
00:57:36.202                             : en:Chapter 09
01:05:17.663                             : en:Chapter 10
01:17:58.382                             : en:Chapter 11
01:23:32.507                             : en:Chapter 12
01:28:06.656                             : en:Chapter 13
01:36:23.360                             : en:Chapter 14
01:44:38.230                             : en:Chapter 15
01:51:59.421                             : en:Chapter 16




                                                                                                                                                                                                        
                                                                                                                                                                                                                                                                                                                                                                                                                                                                                                                                                                                                                                                                                                                                                                                                                                                        
8e56c5f53806b379845cfa8fa9780737.zip (111.69 KB, 下载次数: 0)

回复

使用道具 举报

小黑屋|西西论坛

本网站所有资源来自网络,如无意中侵犯了您的权益,请发邮件至 [email protected],立即清除相关链接

GMT+8, 2021-2-26 02:22 , Processed in 0.096229 second(s), 23 queries .

Powered by Discuz! X3.2

© 2001-2013 Comsenz Inc.

快速回复 返回顶部 返回列表