西西论坛

 找回密码
 立即注册
搜索

[BD-4K] Liss Pereira:持有液体 Liss.Pereira.Reteniendo.liquidos.2019.SPANISH.2160p...

[复制链接]
电影首发 发表于 2021-2-1 20:38:30 | 显示全部楼层 |阅读模式
-->
帖子完整标题:Liss Pereira:持有液体 Liss.Pereira.Reteniendo.liquidos.2019.SPANISH.2160p.NF.WEB-DL.x265.10bit.SDR.DDP5.1-SWTYBLZ 5.21GB


[/url]

◎译  名 Liss Pereira:持有液体
◎片  名 Liss Pereira: Reteniendo Liquidos
◎年  代 2019
◎产  地 巴西
◎类  别 喜剧 / 脱口秀
◎语  言 葡萄牙语
◎上映日期 2019-04-10(巴西)
◎IMDb评分  6.6/10 from 78 users
◎  
◎豆瓣评分 /10 from 0 users
◎ 

◎简  介

  Stand up comedy from the Colombian Liss Pereira, about the truths of sex, love, attraction and lies of modern relationships.
Video
ID                                       : 1
Format                                   : HEVC
Format/Info                              : High Efficiency Video Coding
Format profile                           : Main @Main
Codec ID                                 : V_MPEGH/ISO/HEVC
Duration                                 : 59 min 8 s
Bit rate                                 : 12.0 Mb/s
Width                                    : 3 840 pixels
Height                                   : 2 160 pixels
Display aspect ratio                     : 16:9
Frame rate mode                          : Constant
Frame rate                               : 23.976 (24000/1001/189150) FPS
Color space                              : YUV
Chroma subsampling                       : 4:2:0
Bit depth                                : 10 bits
Bits/(Pixel*Frame)                       : 0.060
Stream size                              : 4.94 GiB (95%)
Default                                  : Yes
Forced                                   : No
Color range                              : Limited
Color primaries                          : BT.709
Transfer characteristics                 : BT.709
Matrix coefficients                      : BT.709

Audio
ID                                       : 2
Format                                   : E-AC-3
Format/Info                              : Enhanced AC-3
Commercial name                          : Dolby Digital Plus
Codec ID                                 : A_EAC3
Duration                                 : 59 min 8 s
Bit rate mode                            : Constant
Bit rate                                 : 640 kb/s
Channel(s)                               : 6 channels
Channel layout                           : L R C LFE Ls Rs
Sampling rate                            : 48.0 kHz
Frame rate                               : 31.250 FPS (1536 SPF)
Compression mode                         : Lossy
Stream size                              : 271 MiB (5%)
Title                                    : DDP 5.1
Language                                 : Spanish
Service kind                             : Complete Main
Default                                  : Yes
Forced                                   : No

Text #1
ID                                       : 3
Format                                   : UTF-8
Codec ID                                 : S_TEXT/UTF8
Codec ID/Info                            : UTF-8 Plain Text
Duration                                 : 57 min 54 s
Bit rate                                 : 79 b/s
Count of elements                        : 893
Stream size                              : 33.7 KiB (0%)
Language                                 : English
Default                                  : Yes
Forced                                   : Yes

Text #2
ID                                       : 4
Format                                   : UTF-8
Codec ID                                 : S_TEXT/UTF8
Codec ID/Info                            : UTF-8 Plain Text
Duration                                 : 58 min 6 s
Bit rate                                 : 71 b/s
Count of elements                        : 866
Stream size                              : 30.5 KiB (0%)
Language                                 : Czech
Default                                  : No
Forced                                   : No

Text #3
ID                                       : 5
Format                                   : UTF-8
Codec ID                                 : S_TEXT/UTF8
Codec ID/Info                            : UTF-8 Plain Text
Duration                                 : 58 min 49 s
Bit rate                                 : 79 b/s
Count of elements                        : 908
Stream size                              : 34.1 KiB (0%)
Language                                 : Danish
Default                                  : No
Forced                                   : No

Text #4
ID                                       : 6
Format                                   : UTF-8
Codec ID                                 : S_TEXT/UTF8
Codec ID/Info                            : UTF-8 Plain Text
Duration                                 : 57 min 55 s
Bit rate                                 : 89 b/s
Count of elements                        : 1068
Stream size                              : 38.1 KiB (0%)
Title                                    : SDH
Language                                 : Spanish
Default                                  : No
Forced                                   : No

Text #5
ID                                       : 7
Format                                   : UTF-8
Codec ID                                 : S_TEXT/UTF8
Codec ID/Info                            : UTF-8 Plain Text
Duration                                 : 58 min 49 s
Bit rate                                 : 74 b/s
Count of elements                        : 905
Stream size                              : 32.3 KiB (0%)
Language                                 : French
Default                                  : No
Forced                                   : No

Text #6
ID                                       : 8
Format                                   : UTF-8
Codec ID                                 : S_TEXT/UTF8
Codec ID/Info                            : UTF-8 Plain Text
Duration                                 : 57 min 54 s
Bit rate                                 : 127 b/s
Count of elements                        : 872
Stream size                              : 54.3 KiB (0%)
Language                                 : Hebrew
Default                                  : No
Forced                                   : No

Text #7
ID                                       : 9
Format                                   : UTF-8
Codec ID                                 : S_TEXT/UTF8
Codec ID/Info                            : UTF-8 Plain Text
Duration                                 : 58 min 2 s
Bit rate                                 : 139 b/s
Count of elements                        : 902
Stream size                              : 59.1 KiB (0%)
Language                                 : Arabic
Default                                  : No
Forced                                   : No

Text #8
ID                                       : 10
Format                                   : UTF-8
Codec ID                                 : S_TEXT/UTF8
Codec ID/Info                            : UTF-8 Plain Text
Duration                                 : 58 min 49 s
Bit rate                                 : 119 b/s
Count of elements                        : 882
Stream size                              : 51.6 KiB (0%)
Language                                 : Greek
Default                                  : No
Forced                                   : No

Text #9
ID                                       : 11
Format                                   : UTF-8
Codec ID                                 : S_TEXT/UTF8
Codec ID/Info                            : UTF-8 Plain Text
Duration                                 : 58 min 49 s
Bit rate                                 : 79 b/s
Count of elements                        : 931
Stream size                              : 34.1 KiB (0%)
Language                                 : German
Default                                  : No
Forced                                   : No

Text #10
ID                                       : 12
Format                                   : UTF-8
Codec ID                                 : S_TEXT/UTF8
Codec ID/Info                            : UTF-8 Plain Text
Duration                                 : 58 min 46 s
Bit rate                                 : 65 b/s
Count of elements                        : 864
Stream size                              : 28.4 KiB (0%)
Language                                 : Finnish
Default                                  : No
Forced                                   : No

Text #11
ID                                       : 13
Format                                   : UTF-8
Codec ID                                 : S_TEXT/UTF8
Codec ID/Info                            : UTF-8 Plain Text
Duration                                 : 58 min 49 s
Bit rate                                 : 70 b/s
Count of elements                        : 908
Stream size                              : 30.4 KiB (0%)
Language                                 : Hungarian
Default                                  : No
Forced                                   : No

Text #12
ID                                       : 14
Format                                   : UTF-8
Codec ID                                 : S_TEXT/UTF8
Codec ID/Info                            : UTF-8 Plain Text
Duration                                 : 58 min 49 s
Bit rate                                 : 72 b/s
Count of elements                        : 909
Stream size                              : 31.4 KiB (0%)
Language                                 : Norwegian Bokmal
Default                                  : No
Forced                                   : No

Text #13
ID                                       : 15
Format                                   : UTF-8
Codec ID                                 : S_TEXT/UTF8
Codec ID/Info                            : UTF-8 Plain Text
Duration                                 : 58 min 49 s
Bit rate                                 : 81 b/s
Count of elements                        : 908
Stream size                              : 34.9 KiB (0%)
Language                                 : Indonesian
Default                                  : No
Forced                                   : No

Text #14
ID                                       : 16
Format                                   : UTF-8
Codec ID                                 : S_TEXT/UTF8
Codec ID/Info                            : UTF-8 Plain Text
Duration                                 : 58 min 49 s
Bit rate                                 : 78 b/s
Count of elements                        : 904
Stream size                              : 34.0 KiB (0%)
Language                                 : Italian
Default                                  : No
Forced                                   : No

Text #15
ID                                       : 17
Format                                   : UTF-8
Codec ID                                 : S_TEXT/UTF8
Codec ID/Info                            : UTF-8 Plain Text
Duration                                 : 58 min 49 s
Bit rate                                 : 65 b/s
Count of elements                        : 879
Stream size                              : 28.0 KiB (0%)
Language                                 : Dutch
Default                                  : No
Forced                                   : No

Text #16
ID                                       : 18
Format                                   : UTF-8
Codec ID                                 : S_TEXT/UTF8
Codec ID/Info                            : UTF-8 Plain Text
Duration                                 : 58 min 49 s
Bit rate                                 : 82 b/s
Count of elements                        : 908
Stream size                              : 35.4 KiB (0%)
Title                                    : Simplified
Language                                 : Chinese
Default                                  : No
Forced                                   : No

Text #17
ID                                       : 19
Format                                   : UTF-8
Codec ID                                 : S_TEXT/UTF8
Codec ID/Info                            : UTF-8 Plain Text
Duration                                 : 58 min 49 s
Bit rate                                 : 78 b/s
Count of elements                        : 907
Stream size                              : 34.0 KiB (0%)
Title                                    : Traditional
Language                                 : Chinese
Default                                  : No
Forced                                   : No

Text #18
ID                                       : 20
Format                                   : UTF-8
Codec ID                                 : S_TEXT/UTF8
Codec ID/Info                            : UTF-8 Plain Text
Duration                                 : 58 min 49 s
Bit rate                                 : 68 b/s
Count of elements                        : 841
Stream size                              : 29.3 KiB (0%)
Language                                 : Japanese
Default                                  : No
Forced                                   : No

Text #19
ID                                       : 21
Format                                   : UTF-8
Codec ID                                 : S_TEXT/UTF8
Codec ID/Info                            : UTF-8 Plain Text
Duration                                 : 58 min 49 s
Bit rate                                 : 96 b/s
Count of elements                        : 908
Stream size                              : 41.4 KiB (0%)
Language                                 : Korean
Default                                  : No
Forced                                   : No

Text #20
ID                                       : 22
Format                                   : UTF-8
Codec ID                                 : S_TEXT/UTF8
Codec ID/Info                            : UTF-8 Plain Text
Duration                                 : 57 min 54 s
Bit rate                                 : 79 b/s
Count of elements                        : 904
Stream size                              : 33.5 KiB (0%)
Language                                 : Portuguese
Default                                  : No
Forced                                   : No

Text #21
ID                                       : 23
Format                                   : UTF-8
Codec ID                                 : S_TEXT/UTF8
Codec ID/Info                            : UTF-8 Plain Text
Duration                                 : 58 min 49 s
Bit rate                                 : 68 b/s
Count of elements                        : 805
Stream size                              : 29.7 KiB (0%)
Language                                 : Polish
Default                                  : No
Forced                                   : No

Text #22
ID                                       : 24
Format                                   : UTF-8
Codec ID                                 : S_TEXT/UTF8
Codec ID/Info                            : UTF-8 Plain Text
Duration                                 : 58 min 49 s
Bit rate                                 : 67 b/s
Count of elements                        : 877
Stream size                              : 29.0 KiB (0%)
Title                                    : Brasil
Language                                 : Portuguese
Default                                  : No
Forced                                   : No

Text #23
ID                                       : 25
Format                                   : UTF-8
Codec ID                                 : S_TEXT/UTF8
Codec ID/Info                            : UTF-8 Plain Text
Duration                                 : 58 min 49 s
Bit rate                                 : 73 b/s
Count of elements                        : 748
Stream size                              : 31.5 KiB (0%)
Language                                 : Swedish
Default                                  : No
Forced                                   : No

Text #24
ID                                       : 26
Format                                   : UTF-8
Codec ID                                 : S_TEXT/UTF8
Codec ID/Info                            : UTF-8 Plain Text
Duration                                 : 58 min 49 s
Bit rate                                 : 251 b/s
Count of elements                        : 909
Stream size                              : 108 KiB (0%)
Language                                 : Thai
Default                                  : No
Forced                                   : No

Text #25
ID                                       : 27
Format                                   : UTF-8
Codec ID                                 : S_TEXT/UTF8
Codec ID/Info                            : UTF-8 Plain Text
Duration                                 : 57 min 54 s
Bit rate                                 : 82 b/s
Count of elements                        : 907
Stream size                              : 35.1 KiB (0%)
Language                                 : Romanian
Default                                  : No
Forced                                   : No

Text #26
ID                                       : 28
Format                                   : UTF-8
Codec ID                                 : S_TEXT/UTF8
Codec ID/Info                            : UTF-8 Plain Text
Duration                                 : 58 min 49 s
Bit rate                                 : 77 b/s
Count of elements                        : 906
Stream size                              : 33.2 KiB (0%)
Language                                 : Turkish
Default                                  : No
Forced                                   : No

Text #27
ID                                       : 29
Format                                   : UTF-8
Codec ID                                 : S_TEXT/UTF8
Codec ID/Info                            : UTF-8 Plain Text
Duration                                 : 58 min 49 s
Bit rate                                 : 108 b/s
Count of elements                        : 908
Stream size                              : 46.7 KiB (0%)
Language                                 : Vietnamese
Default                                  : No
Forced                                   : No

Text #28
ID                                       : 30
Format                                   : UTF-8
Codec ID                                 : S_TEXT/UTF8
Codec ID/Info                            : UTF-8 Plain Text
Duration                                 : 58 min 49 s
Bit rate                                 : 121 b/s
Count of elements                        : 903
Stream size                              : 52.4 KiB (0%)
Language                                 : Russian
Default                                  : No
Forced                                   : No




                                                                                                                                                                                                        
                                                                                                                                                                                                                                                                                                                                                                                                                                                                                                                                                                                                                                                                                                                                                                                                                                                        
e9c52ef9036d94432fd3751412c6a125.zip (26.79 KB, 下载次数: 0)

回复

使用道具 举报

小黑屋|西西论坛

本网站所有资源来自网络,如无意中侵犯了您的权益,请发邮件至 [email protected],立即清除相关链接

GMT+8, 2021-3-2 00:53 , Processed in 0.107563 second(s), 23 queries .

Powered by Discuz! X3.2

© 2001-2013 Comsenz Inc.

快速回复 返回顶部 返回列表