西西论坛

 找回密码
 立即注册
搜索

滑板少年/我们为什么溜滑板 Minding.the.Gap.2018.1080p.BluRay.x264....

[复制链接]
电影首发 发表于 2021-2-1 20:07:45 | 显示全部楼层 |阅读模式
-->
帖子完整标题:滑板少年/我们为什么溜滑板 Minding.the.Gap.2018.1080p.BluRay.x264.DTS-EDPH 11.21GB


[/url]

◎译  名 滑板少年/我们为什么溜滑板(台)/注意脚下/爱与痛的裂痕
◎片  名 Minding the Gap
◎年  代 2018
◎产  地 美国
◎类  别 纪录片
◎语  言 英语
◎上映日期 2018-01-21(圣丹斯电影节)
◎IMDb评分  8.1/10 from 7870 users
◎  
◎豆瓣评分 8.8/10 from 6098 users
◎ 
◎片  长 93分钟
◎导  演 刘冰 Bing Liu
◎主  演 基尔·约翰逊 Keire Johnson
       刘冰 Bing Liu
       扎克·穆利根 Zack Mulligan

◎标  签 纪录片 | 美国 | 成长 | 滑板 | 青春 | 2018 | 家庭 | 运动

◎简  介

  导演刘冰将镜头对准了从小与自己一起玩滑板的好友们。年纪最大的Zack初为人父,新生儿的降临似乎让Zack一夜之间长大,但随之而来的生存压力与家庭矛盾也让他接近崩溃。Keira刚刚成年,初入社会的他充满迷茫,纪录片的拍摄给了他重新审视自己的过往与家庭,以及周遭一切的契机。刘冰也交出镜头,讲述了自己的故事,是什么让他选择了滑板?又是什么促使他拍摄了这部纪录片?

◎获奖情况

  第91届奥斯卡金像奖 ?(2019)
  最佳纪录长片(提名) 黛安·莫伊·关?/?刘冰
  
  第34届圣丹斯电影节 ?(2018)
  评审团大奖纪录片(提名) 刘冰
  
  第28届MTV电影奖 ?(2019)
  MTV电影奖最佳纪录片(提名)
  
  第84届纽约影评人协会奖 ?(2018)
  最佳纪录片
  
  第90届美国国家评论协会奖 ?(2018)
  五佳纪录片
  
  第34届美国独立精神奖 ?(2019)
  最佳纪录片(提名)
  “比虚构更真实”奖(纪录片) 刘冰
  
  第28届哥谭独立电影奖 ?(2018)
  最佳纪录片(提名)
  
  第23届金卫星奖 ?(2019)
  电影部门最佳纪录片
  
  第53届美国国家影评人协会奖 ?(2019)
  最佳纪录片
  
  第44届洛杉矶影评人协会奖 ?(2018)
  最佳剪辑
  最佳纪录片(提名)
  
  第31届芝加哥影评人协会奖 ?(2018)
  最佳纪录片
  最具潜力导演 刘冰
  
  第17届旧金山影评人协会奖 ?(2018)
  最佳纪录片(提名)
  
  第18届温哥华影评人协会奖 ?(2018)
  最佳纪录片
  
  第22届美国在线影评人协会奖 ?(2019)
  最佳纪录片(提名)
  
  第16届中国(广州)国际纪录片节 ?(2018)
  “金红棉”国际纪录片评优单元优秀首作纪录片 刘冰
Video
ID                                       : 1
Format                                   : AVC
Format/Info                              : Advanced Video Codec
Format profile                           :
Format settings                          : CABAC / 4 Ref Frames
Format settings, CABAC                   : Yes
Format settings, Reference frames        : 4 frames
Codec ID                                 : V_MPEG4/ISO/AVC
Duration                                 : 1 h 33 min
Bit rate                                 : 15.5 Mb/s
Width                                    : 1 920 pixels
Height                                   : 1 080 pixels
Display aspect ratio                     : 16:9
Frame rate mode                          : Constant
Frame rate                               : 23.976 (24000/1001/189150) FPS
Color space                              : YUV
Chroma subsampling                       : 4:2:0
Bit depth                                : 8 bits
Scan type                                : Progressive
Bits/(Pixel*Frame)                       : 0.311
Stream size                              : 10.1 GiB (90%)
Writing library                          : x264 core 160 r3009 4c9b076
Encoding settings                        : cabac=1 / ref=4 / deblock=1:-3:-3 / analyse=0x3:0x133 / me=umh / subme=11 / psy=1 / psy_rd=1.02:0.00 / mixed_ref=1 / me_range=32 / chroma_me=1 / trellis=2 / 8x8dct=1 / cqm=0 / deadzone=21,11 / fast_pskip=0 / chroma_qp_offset=-2 / threads=18 / lookahead_threads=4 / sliced_threads=0 / nr=0 / decimate=0 / interlaced=0 / bluray_compat=0 / constrained_intra=0 / bframes=16 / b_pyramid=2 / b_adapt=2 / b_bias=0 / direct=3 / weightb=1 / open_gop=0 / weightp=2 / keyint=250 / keyint_min=23 / scenecut=40 / intra_refresh=0 / rc_lookahead=250 / rc=crf / mbtree=0 / crf=21.0 / qcomp=0.60 / qpmin=0 / qpmax=69 / qpstep=4 / vbv_maxrate=62500 / vbv_bufsize=78125 / crf_max=0.0 / nal_hrd=none / filler=0 / ip_ratio=1.30 / pb_ratio=1.20 / aq=3:0.80
Default                                  : Yes
Forced                                   : No
Color range                              : Limited
Color primaries                          : BT.709
Matrix coefficients                      : BT.709

Audio #1
ID                                       : 2
Format                                   : DTS
Format/Info                              : Digital Theater Systems
Codec ID                                 : A_DTS
Duration                                 : 1 h 33 min
Bit rate mode                            : Constant
Bit rate                                 : 1 509 kb/s
Channel(s)                               : 6 channels
Channel layout                           : C L R Ls Rs LFE
Sampling rate                            : 48.0 kHz
Frame rate                               : 93.750 FPS (512 SPF)
Bit depth                                : 24 bits
Compression mode                         : Lossy
Stream size                              : 1 009 MiB (9%)
Language                                 : English
Default                                  : Yes
Forced                                   : No

Audio #2
ID                                       : 3
Format                                   : AAC LC
Format/Info                              : Advanced Audio Codec Low Complexity
Codec ID                                 : A_AAC-2
Duration                                 : 1 h 33 min
Bit rate                                 : 80.8 kb/s
Channel(s)                               : 2 channels
Channel layout                           : L R
Sampling rate                            : 48.0 kHz
Frame rate                               : 46.875 FPS (1024 SPF)
Compression mode                         : Lossy
Stream size                              : 54.1 MiB (0%)
Title                                    : Audio commentary by Keire johnson, Bing liu, and Zack mulligan
Language                                 : English
Default                                  : No
Forced                                   : No

Audio #3
ID                                       : 4
Format                                   : AAC LC
Format/Info                              : Advanced Audio Codec Low Complexity
Codec ID                                 : A_AAC-2
Duration                                 : 1 h 33 min
Bit rate                                 : 84.9 kb/s
Channel(s)                               : 2 channels
Channel layout                           : L R
Sampling rate                            : 48.0 kHz
Frame rate                               : 46.875 FPS (1024 SPF)
Compression mode                         : Lossy
Stream size                              : 56.8 MiB (0%)
Title                                    : Audio Commentary by Bing Liu
Language                                 : English
Default                                  : No
Forced                                   : No

Text
ID                                       : 5
Format                                   : UTF-8
Codec ID                                 : S_TEXT/UTF8
Codec ID/Info                            : UTF-8 Plain Text
Duration                                 : 1 h 31 min
Bit rate                                 : 77 b/s
Count of elements                        : 1288
Stream size                              : 51.9 KiB (0%)
Language                                 : English
Default                                  : No
Forced                                   : No

Menu
00:00:00.000                             : en:\"Somewhere along the line\'
00:03:10.565                             : en:Zack, Bing, and Keire
00:07:56.768                             : en:\"Life might be moving too fast\"
00:12:43.763                             : en:Roberta, Keire\'s mother
00:16:43.794                             : en:\"A life-or-death thing\"
00:20:55.463                             : en:Working and babysitting
00:26:40.891                             : en:Main Street Skatepark
00:30:31.538                             : en:\"I hate you\"
00:32:16.143                             : en:Kent, Bing\'s brother
00:36:50.500                             : en:Elliot\'s first birthday
00:38:46.741                             : en:Keire remembers his dad\'s death
00:40:56.204                             : en:\"What have you guys been up to?\"
00:45:05.620                             : en:Bing interviews his mom, Mengyue
00:50:28.859                             : en:Taking it day by day
00:54:05.033                             : en:\"Don\'t forget you\'re Black\"
00:57:41.083                             : en:Nina lives with her aunt and uncle
00:59:57.427                             : en:Keire\'s new friends
01:03:27.554                             : en:\"What the fuck?\"
01:05:35.890                             : en:Zack in Denver
01:09:29.540                             : en:\"Family will always be there\"
01:10:25.263                             : en:Zack back in Rockford
01:13:32.950                             : en:\"I saw myself in you own story\"
01:16:47.102                             : enomestic abuse
01:20:10.514                             : enealing with themselves
01:23:42.434                             : en:Keire says goodbye
01:29:15.016                             : en:End credits
[/url][/url][/url]



                                                                                                                                                                                                        
                                                                                                                                                                                                                                                                                                                                                                                                                                                                                                                                                                                                                                                                                                                                                                                                                                                        
5a6c51739ff5c6f7674eb7c2a70da33d.zip (56.7 KB, 下载次数: 0)

回复

使用道具 举报

小黑屋|西西论坛

本网站所有资源来自网络,如无意中侵犯了您的权益,请发邮件至 [email protected],立即清除相关链接

GMT+8, 2021-3-9 08:33 , Processed in 0.088757 second(s), 23 queries .

Powered by Discuz! X3.2

© 2001-2013 Comsenz Inc.

快速回复 返回顶部 返回列表