西西论坛

 找回密码
 立即注册
搜索

来自光芒的光 Light.from.Light.2019.1080p.BluRay.x264-BiPOLAR 10.15GB

[复制链接]
电影首发 发表于 2021-2-1 20:07:45 | 显示全部楼层 |阅读模式
-->
帖子完整标题:来自光芒的光 Light.from.Light.2019.1080p.BluRay.x264-BiPOLAR 10.15GB


[/url]

◎译  名 来自光芒的光
◎片  名 Light From Light
◎年  代 2019
◎产  地 美国
◎类  别 剧情
◎语  言 英语
◎上映日期 2019-01-28(圣丹斯电影节) / 2019-11-01(美国)
◎IMDb评分  5.8/10 from 427 users
◎  
◎豆瓣评分 /10 from 0 users
◎ 
◎片  长 82分钟
◎导  演 保罗·哈里尔 Paul Harrill
◎编  剧 保罗·哈里尔 Paul Harrill
◎主  演 马琳·爱尔兰 Marin Ireland
       吉姆·加菲根 Jim Gaffigan
       乔什·维金斯 Josh Wiggins
       罗达·格里菲丝 Rhoda Griffis
       Michael Hampton

◎标  签 美国 | 2019 | 文艺 | 剧情 | 青春 | 美国电影 | 鬼魂 | 科幻

◎简  介

  谢利亚,一个单身母亲,有时是超自然调查员,被征召去调查在东田纳西州一个寡妇的农舍里可能"闹鬼"的问题。

◎获奖情况

  第35届圣丹斯电影节 ?(2019)
  观众奖未来创新奖(提名) 保罗·哈里尔
Video
ID                                       : 1
Format                                   : AVC
Format/Info                              : Advanced Video Codec
Format profile                           :
Format settings                          : CABAC / 4 Ref Frames
Format settings, CABAC                   : Yes
Format settings, Reference frames        : 4 frames
Codec ID                                 : V_MPEG4/ISO/AVC
Duration                                 : 1 h 23 min
Bit rate                                 : 14.1 Mb/s
Width                                    : 1 792 pixels
Height                                   : 1 080 pixels
Display aspect ratio                     : 5:3
Frame rate mode                          : Constant
Frame rate                               : 24.000 FPS
Color space                              : YUV
Chroma subsampling                       : 4:2:0
Bit depth                                : 8 bits
Scan type                                : Progressive
Bits/(Pixel*Frame)                       : 0.304
Stream size                              : 8.19 GiB (81%)
Writing library                          : x264 core 161 r3027 4121277
Encoding settings                        : cabac=1 / ref=4 / deblock=1:-3:-3 / analyse=0x3:0x133 / me=umh / subme=10 / psy=1 / psy_rd=1.00:0.15 / mixed_ref=1 / me_range=24 / chroma_me=1 / trellis=2 / 8x8dct=1 / cqm=0 / deadzone=21,11 / fast_pskip=1 / chroma_qp_offset=-3 / threads=18 / lookahead_threads=3 / sliced_threads=0 / nr=0 / decimate=1 / interlaced=0 / bluray_compat=0 / constrained_intra=0 / bframes=8 / b_pyramid=2 / b_adapt=2 / b_bias=0 / direct=3 / weightb=1 / open_gop=0 / weightp=2 / keyint=250 / keyint_min=24 / scenecut=40 / intra_refresh=0 / rc_lookahead=60 / rc=crf / mbtree=1 / crf=17.0 / qcomp=0.60 / qpmin=0 / qpmax=69 / qpstep=4 / ip_ratio=1.40 / aq=3:0.60
Language                                 : English
Default                                  : Yes
Forced                                   : No
Color range                              : Limited
Matrix coefficients                      : BT.709

Audio #1
ID                                       : 2
Format                                   : DTS XLL
Format/Info                              : Digital Theater Systems
Commercial name                          : DTS-HD Master Audio
Codec ID                                 : A_DTS
Duration                                 : 1 h 23 min
Bit rate mode                            : Variable
Bit rate                                 : 3 170 kb/s
Channel(s)                               : 6 channels
Channel layout                           : C L R Ls Rs LFE
Sampling rate                            : 48.0 kHz
Frame rate                               : 93.750 FPS (512 SPF)
Bit depth                                : 24 bits
Compression mode                         : Lossless
Stream size                              : 1.84 GiB (18%)
Language                                 : English
Default                                  : Yes
Forced                                   : No

Audio #2
ID                                       : 3
Format                                   : AAC LC
Format/Info                              : Advanced Audio Codec Low Complexity
Codec ID                                 : A_AAC-2
Duration                                 : 1 h 23 min
Bit rate                                 : 89.2 kb/s
Channel(s)                               : 2 channels
Channel layout                           : L R
Sampling rate                            : 48.0 kHz
Frame rate                               : 46.875 FPS (1024 SPF)
Compression mode                         : Lossy
Delay relative to video                  : 9 ms
Stream size                              : 53.0 MiB (1%)
Title                                    : English Commentary by Paul Harrill and Marin Ireland
Language                                 : English
Default                                  : No
Forced                                   : No

Audio #3
ID                                       : 4
Format                                   : AAC LC
Format/Info                              : Advanced Audio Codec Low Complexity
Codec ID                                 : A_AAC-2
Duration                                 : 1 h 23 min
Bit rate                                 : 83.9 kb/s
Channel(s)                               : 2 channels
Channel layout                           : L R
Sampling rate                            : 48.0 kHz
Frame rate                               : 46.875 FPS (1024 SPF)
Compression mode                         : Lossy
Delay relative to video                  : 9 ms
Stream size                              : 49.9 MiB (0%)
Title                                    : English Commentary by Paul Harrill, James M. Johnston and Kelly Williams
Language                                 : English
Default                                  : No
Forced                                   : No

Text #1
ID                                       : 5
Format                                   : UTF-8
Codec ID                                 : S_TEXT/UTF8
Codec ID/Info                            : UTF-8 Plain Text
Duration                                 : 1 h 15 min
Bit rate                                 : 35 b/s
Count of elements                        : 733
Stream size                              : 19.5 KiB (0%)
Title                                    : English
Language                                 : English
Default                                  : No
Forced                                   : No

Text #2
ID                                       : 6
Format                                   : UTF-8
Codec ID                                 : S_TEXT/UTF8
Codec ID/Info                            : UTF-8 Plain Text
Duration                                 : 1 h 20 min
Bit rate                                 : 36 b/s
Count of elements                        : 782
Stream size                              : 21.2 KiB (0%)
Title                                    : English SDH
Language                                 : English
Default                                  : No
Forced                                   : No

Text #3
ID                                       : 7
Format                                   : PGS
Muxing mode                              : zlib
Codec ID                                 : S_HDMV/PGS
Codec ID/Info                            : Picture based subtitle format used on BDs/HD-DVDs
Duration                                 : 1 h 20 min
Bit rate                                 : 28.5 kb/s
Count of elements                        : 1270
Stream size                              : 16.4 MiB (0%)
Title                                    : English SDH
Language                                 : English
Default                                  : No
Forced                                   : No

Menu
00:00:00.000                             : en:00:00:00.000
00:05:40.042                             : en:00:05:40.042
00:12:16.375                             : en:00:12:16.375
00:17:28.500                             : en:00:17:28.500
00:23:22.458                             : en:00:23:22.458
00:28:52.583                             : en:00:28:52.583
00:36:33.250                             : en:00:36:33.250
00:39:59.083                             : en:00:39:59.083
00:50:38.458                             : en:00:50:38.458
00:57:00.667                             : en:00:57:00.667
01:02:14.000                             : en:01:02:14.000
01:10:23.583                             : en:01:10:23.583
01:18:00.708                             : en:01:18:00.708
[/url]



                                                                                                                                                                                                        
                                                                                                                                                                                                                                                                                                                                                                                                                                                                                                                                                                                                                                                                                                                                                                                                                                                        
b94193159846a9d6328540a9831a8f2a.zip (51.47 KB, 下载次数: 0)

回复

使用道具 举报

小黑屋|西西论坛

本网站所有资源来自网络,如无意中侵犯了您的权益,请发邮件至 [email protected],立即清除相关链接

GMT+8, 2021-3-2 02:31 , Processed in 0.101212 second(s), 23 queries .

Powered by Discuz! X3.2

© 2001-2013 Comsenz Inc.

快速回复 返回顶部 返回列表