西西论坛

 找回密码
 立即注册
搜索

神秘的亨利·皮克 The.Mystery.of.Henri.Pick.2019.FRENCH.1080p.BluRay.x26... ...

[复制链接]
电影首发 发表于 2021-2-1 20:07:45 | 显示全部楼层 |阅读模式
-->
帖子完整标题:神秘的亨利·皮克 The.Mystery.of.Henri.Pick.2019.FRENCH.1080p.BluRay.x264-HANDJOB 8.64GB


[/url]

◎译  名 神秘的亨利·皮克/The Mystery of Henri Pick/亨利先生的秘密(台)
◎片  名 Le mystère Henri Pick
◎年  代 2019
◎产  地 法国,比利时
◎类  别 剧情 / 喜剧
◎语  言 法语,俄语
◎上映日期 2019-03-06(法国)
◎IMDb评分  6.7/10 from 2683 users
◎  
◎豆瓣评分 6.9/10 from 883 users
◎ 
◎片  长 100分钟
◎导  演 雷米·贝占松 Rémi Bezan?on
◎编  剧 雷米·贝占松 Rémi Bezan?on / 大卫·冯金诺斯 David Foenkinos / 瓦妮莎·波塔尔 Vanessa Portal
◎主  演 法布莱斯·鲁奇尼 Fabrice Luchini
       卡米尔·科坦 Camille Cottin
       爱丽丝·伊萨 Alice Isaaz
       巴斯蒂安·布永 Bastien Bouillon
       约西亚·斯托勒鲁 Josiane Stoléru
       阿斯特里德·惠特纳尔 Astrid Whettnall
       马克·弗赖兹 Marc Fraize
       汉娜·许古拉 Hanna Schygulla
       莱耶·塞伦 Lyès Salem
       伊娃·拉利耶 Eva Lallier
       皮埃尔·布雷尔 Pierre Bourel
       卢卡·梅利亚瓦 Louka Meliava

◎标  签 法国 | 喜剧 | 悬疑 | 剧情 | 2019 | 文学 | 文艺 | 小说改编

◎简  介

  The Mystery of Henri Pick
  
  退稿圖書館,館如其名,專收退稿。不得志的作家可以信步走在其他不得志作家的書稿之間,自行選擇上架的位置,在這種乏人問津的形式中找到安身之處。唯一的要求是,作者必須親自寄存書稿,代表某種徹底放棄的最終遺願。退稿圖書館的訪客不多,名聲卻在一群夢想破滅之人之間不脛而走。
  
  這天,上門的是沒沒無聞的作家費德里克,和他的書迷兼編輯兼女友黛兒芬,他們走進這座書稿的墳墓,卻在死氣沉沉的紙堆中,發現了一本餘氣尚存的書稿,名為「亨利.皮克」的作者所寫的小說《一段愛情故事的彌留時刻》。內容描述一對決定分開的戀人最後相處的幾個小時,同時穿插詩人普希金的臨終時刻。故事極其動人,但皮克卻再也無法得知自己擁有仰慕的讀者,因為一則訃聞上同樣寫了他的名字。
  
  愛書的出版人都明白,好書沒有理由不出版。他們前往拜訪皮克的遺孀,卻發現更為戲劇性的故事:皮克可能是一位躲起來寫作的披薩店老闆,除了購物清單之外,沒人看過他寫任何東西。
  
  書稿出版後果然造成轟動,讀者深受感動,媒體更是騷動,大家都想深入了解這位「皮克」,他到底是誰?為何偷偷寫書?又為什麼選擇退稿圖書館做為作品最後的去處?而與此同時,愛情的彌留時刻,似乎也悄悄降臨在這些愛書人身上……
Video
ID                                       : 1
Format                                   : AVC
Format/Info                              : Advanced Video Codec
Format profile                           :
Format settings                          : CABAC / 5 Ref Frames
Format settings, CABAC                   : Yes
Format settings, Reference frames        : 5 frames
Codec ID                                 : V_MPEG4/ISO/AVC
Duration                                 : 1 h 40 min
Bit rate                                 : 11.6 Mb/s
Width                                    : 1 920 pixels
Height                                   : 798 pixels
Display aspect ratio                     : 2.40:1
Frame rate mode                          : Constant
Frame rate                               : 24.000 FPS
Color space                              : YUV
Chroma subsampling                       : 4:2:0
Bit depth                                : 8 bits
Scan type                                : Progressive
Bits/(Pixel*Frame)                       : 0.315
Stream size                              : 8.15 GiB (94%)
Writing library                          : x264 core 157 r2935 545de2f
Encoding settings                        : cabac=1 / ref=5 / deblock=1:-3:-3 / analyse=0x3:0x133 / me=umh / subme=10 / psy=1 / psy_rd=1.00:0.00 / mixed_ref=1 / me_range=32 / chroma_me=1 / trellis=2 / 8x8dct=1 / cqm=0 / deadzone=21,11 / fast_pskip=0 / chroma_qp_offset=-2 / threads=18 / lookahead_threads=4 / sliced_threads=0 / nr=0 / decimate=0 / interlaced=0 / bluray_compat=0 / constrained_intra=0 / bframes=16 / b_pyramid=2 / b_adapt=2 / b_bias=0 / direct=3 / weightb=1 / open_gop=0 / weightp=2 / keyint=240 / keyint_min=24 / scenecut=40 / intra_refresh=0 / rc_lookahead=60 / rc=crf / mbtree=0 / crf=16.2 / qcomp=0.60 / qpmin=0 / qpmax=69 / qpstep=4 / vbv_maxrate=62500 / vbv_bufsize=78125 / crf_max=0.0 / nal_hrd=none / filler=0 / ip_ratio=1.40 / pb_ratio=1.30 / aq=2:1.00
Default                                  : Yes
Forced                                   : No
Color range                              : Limited
Color primaries                          : BT.709
Transfer characteristics                 : BT.709
Matrix coefficients                      : BT.709

Audio
ID                                       : 2
Format                                   : AC-3
Format/Info                              : Audio Coding 3
Commercial name                          : Dolby Digital
Codec ID                                 : A_AC3
Duration                                 : 1 h 40 min
Bit rate mode                            : Constant
Bit rate                                 : 640 kb/s
Channel(s)                               : 6 channels
Channel layout                           : L R C LFE Ls Rs
Sampling rate                            : 48.0 kHz
Frame rate                               : 31.250 FPS (1536 SPF)
Compression mode                         : Lossy
Stream size                              : 461 MiB (5%)
Language                                 : French
Service kind                             : Complete Main
Default                                  : Yes
Forced                                   : No

Text #1
ID                                       : 3
Format                                   : UTF-8
Codec ID                                 : S_TEXT/UTF8
Codec ID/Info                            : UTF-8 Plain Text
Duration                                 : 1 h 36 min
Bit rate                                 : 80 b/s
Count of elements                        : 1457
Stream size                              : 56.5 KiB (0%)
Language                                 : English
Default                                  : Yes
Forced                                   : No

Text #2
ID                                       : 4
Format                                   : PGS
Codec ID                                 : S_HDMV/PGS
Codec ID/Info                            : Picture based subtitle format used on BDs/HD-DVDs
Duration                                 : 1 h 40 min
Bit rate                                 : 44.2 kb/s
Count of elements                        : 3535
Stream size                              : 31.8 MiB (0%)
Language                                 : French
Default                                  : No
Forced                                   : No

Menu
00:00:00.000                             : en:Chapter 01
00:10:47.291                             : en:Chapter 02
00:18:19.541                             : en:Chapter 03
00:26:13.291                             : en:Chapter 04
00:34:01.125                             : en:Chapter 05
00:45:48.291                             : en:Chapter 06
00:54:28.041                             : en:Chapter 07
01:02:09.291                             : en:Chapter 08
01:10:46.000                             : en:Chapter 09
01:19:49.666                             : en:Chapter 10
01:26:59.416                             : en:Chapter 11
01:34:43.958                             : en:Chapter 12
[/url][/url][/url]



                                                                                                                                                                                                        
                                                                                                                                                                                                                                                                                                                                                                                                                                                                                                                                                                                                                                                                                                                                                                                                                                                        
babb7f01098f1d0270c1f4c896fec571.zip (43.91 KB, 下载次数: 0)

回复

使用道具 举报

小黑屋|西西论坛

本网站所有资源来自网络,如无意中侵犯了您的权益,请发邮件至 [email protected],立即清除相关链接

GMT+8, 2021-3-9 08:00 , Processed in 0.120769 second(s), 23 queries .

Powered by Discuz! X3.2

© 2001-2013 Comsenz Inc.

快速回复 返回顶部 返回列表