西西论坛

 找回密码
 立即注册
搜索

流浪者:追随布鲁斯·查特文的脚步/游牧民族:跟随布鲁斯·查... ...

[复制链接]
电影首发 发表于 2021-2-1 20:07:45 | 显示全部楼层 |阅读模式
-->
帖子完整标题:流浪者:追随布鲁斯·查特文的脚步/游牧民族:跟随布鲁斯·查特文的脚步 Nomad.In.The.Footsteps.Of.Bruce.Chatwin.2019.1080p.BluRay.x264.FLAC2.0-EA 8.72GB


[/url]

◎译  名 流浪者:追随布鲁斯·查特文的脚步/游牧民族:跟随布鲁斯·查特文的脚步
◎片  名 Nomad: In the Footsteps of Bruce Chatwin
◎年  代 2019
◎产  地 英国
◎类  别 纪录片 / 冒险
◎语  言 英语,德语
◎上映日期 2019-04-28(美国)
◎IMDb评分  6.9/10 from 560 users
◎  
◎豆瓣评分 7.3/10 from 74 users
◎ 
◎片  长 85分钟
◎导  演 沃纳·赫尔佐格 Werner Herzog
◎编  剧 沃纳·赫尔佐格 Werner Herzog
◎主  演 沃纳·赫尔佐格 Werner Herzog
       布鲁斯 查特文 Bruce Chatwin

◎标  签 纪录片 | 英国 | 沃纳·赫尔佐格 | 2019 | 赫尔佐格 | WernerHerzog | 冒险 | Documentary

◎简  介

  影片聚焦英国著名的旅行作家布鲁斯·查特文,他因感染艾滋病于1989年去世,而他的多年好友赫尔佐格在如今仍用该片表达了怀念。
  
  影片以极为私人的笔触描绘两人多年的知己之情,查特文怀着对真相的热情,走到了世界的各个角落,而赫尔佐格也上路,去探访查特文一直着迷的东西——游牧生活,“那些狂野的角色、奇怪的梦想者,关于人类存在的本质的远大概念”。
Video
ID                                       : 1
Format                                   : AVC
Format/Info                              : Advanced Video Codec
Format profile                           :
Format settings                          : CABAC / 4 Ref Frames
Format settings, CABAC                   : Yes
Format settings, Reference frames        : 4 frames
Codec ID                                 : V_MPEG4/ISO/AVC
Duration                                 : 1 h 29 min
Bit rate                                 : 13.6 Mb/s
Width                                    : 1 920 pixels
Height                                   : 1 080 pixels
Display aspect ratio                     : 16:9
Frame rate mode                          : Constant
Frame rate                               : 23.976 (24000/1001/189150) FPS
Color space                              : YUV
Chroma subsampling                       : 4:2:0
Bit depth                                : 8 bits
Scan type                                : Progressive
Bits/(Pixel*Frame)                       : 0.273
Stream size                              : 8.47 GiB (97%)
Title                                    : -EA
Writing library                          : x264 core 161 r3027+53 2464769 t_mod_New [(8 & 10) X86_64]
Encoding settings                        : cabac=1 / ref=4 / deblock=1:-3:-3 / analyse=0x3:0x133 / me=umh / subme=10 / psy=1 / fade_compensate=0.00 / psy_rd=0.98:0.00 / mixed_ref=1 / me_range=32 / chroma_me=1 / trellis=2 / 8x8dct=1 / cqm=0 / deadzone=21,11 / fast_pskip=0 / chroma_qp_offset=-2 / threads=18 / lookahead_threads=4 / sliced_threads=0 / nr=0 / decimate=0 / interlaced=0 / bluray_compat=0 / constrained_intra=0 / fgo=0 / bframes=16 / b_pyramid=2 / b_adapt=2 / b_bias=0 / direct=3 / weightb=1 / open_gop=0 / weightp=2 / keyint=240 / keyint_min=23 / scenecut=40 / intra_refresh=0 / rc_lookahead=60 / rc=crf / mbtree=0 / crf=16.0500 / qcomp=0.65 / qpmin=0:0:0 / qpmax=69:69:69 / qpstep=4 / vbv_maxrate=62500 / vbv_bufsize=78125 / crf_max=0.0 / nal_hrd=none / filler=0 / ip_ratio=1.40 / pb_ratio=1.30 / aq=3:0.90 / aq-sensitivity=10.00 / aq-factor=1.00:1.00:1.00 / aq2=0 / aq3=0
Language                                 : English
Default                                  : Yes
Forced                                   : No
Color range                              : Limited
Color primaries                          : BT.709
Transfer characteristics                 : BT.709
Matrix coefficients                      : BT.709

Audio
ID                                       : 2
Format                                   : FLAC
Format/Info                              : Free Lossless Audio Codec
Codec ID                                 : A_FLAC
Duration                                 : 1 h 29 min
Bit rate mode                            : Variable
Bit rate                                 : 372 kb/s
Channel(s)                               : 2 channels
Channel layout                           : L R
Sampling rate                            : 48.0 kHz
Frame rate                               : 11.719 FPS (4096 SPF)
Bit depth                                : 16 bits
Compression mode                         : Lossless
Stream size                              : 237 MiB (3%)
Writing library                          : libFLAC 1.2.1 (UTC 2007-09-17)
Language                                 : English
Default                                  : Yes
Forced                                   : No

Text #1
ID                                       : 3
Format                                   : UTF-8
Codec ID                                 : S_TEXT/UTF8
Codec ID/Info                            : UTF-8 Plain Text
Duration                                 : 27 min 57 s
Bit rate                                 : 8 b/s
Count of elements                        : 47
Stream size                              : 1.67 KiB (0%)
Title                                    : srt
Language                                 : English
Default                                  : Yes
Forced                                   : Yes

Text #2
ID                                       : 4
Format                                   : PGS
Muxing mode                              : zlib
Codec ID                                 : S_HDMV/PGS
Codec ID/Info                            : Picture based subtitle format used on BDs/HD-DVDs
Duration                                 : 27 min 57 s
Bit rate                                 : 4 796 b/s
Count of elements                        : 94
Stream size                              : 982 KiB (0%)
Title                                    : sup
Language                                 : English
Default                                  : No
Forced                                   : No

Text #3
ID                                       : 5
Format                                   : UTF-8
Codec ID                                 : S_TEXT/UTF8
Codec ID/Info                            : UTF-8 Plain Text
Duration                                 : 1 h 29 min
Bit rate                                 : 76 b/s
Count of elements                        : 1225
Stream size                              : 50.1 KiB (0%)
Title                                    : srt HoH
Language                                 : English
Default                                  : No
Forced                                   : No

Text #4
ID                                       : 6
Format                                   : PGS
Muxing mode                              : zlib
Codec ID                                 : S_HDMV/PGS
Codec ID/Info                            : Picture based subtitle format used on BDs/HD-DVDs
Duration                                 : 1 h 29 min
Bit rate                                 : 42.1 kb/s
Count of elements                        : 2450
Stream size                              : 26.9 MiB (0%)
Title                                    : sup HoH
Language                                 : English
Default                                  : No
Forced                                   : No

Menu
00:00:00.000                             : :Chapter 01
00:15:16.332                             : :Chapter 02
00:28:09.730                             : :Chapter 03
00:44:09.856                             : :Chapter 04
00:55:14.686                             : :Chapter 05
01:02:05.597                             : :Chapter 06
01:11:32.997                             : :Chapter 07
01:20:20.107                             : :Chapter 08
01:28:10.619                             : :Chapter 09
[/url][/url][/url]



                                                                                                                                                                                                        
                                                                                                                                                                                                                                                                                                                                                                                                                                                                                                                                                                                                                                                                                                                                                                                                                                                        
0a20afe29c050d41eb8f91f19f8948e4.zip (44.35 KB, 下载次数: 0)

回复

使用道具 举报

小黑屋|西西论坛

本网站所有资源来自网络,如无意中侵犯了您的权益,请发邮件至 [email protected],立即清除相关链接

GMT+8, 2021-3-2 04:10 , Processed in 0.095447 second(s), 23 queries .

Powered by Discuz! X3.2

© 2001-2013 Comsenz Inc.

快速回复 返回顶部 返回列表