西西论坛

 找回密码
 立即注册
搜索

消失的情人節 My.Missing.Valentine.2020.1080p.BluRay.x264-BiPOLAR 5.66GB

[复制链接]
电影首发 发表于 2021-2-1 20:07:45 | 显示全部楼层 |阅读模式
-->
帖子完整标题:消失的情人節 My.Missing.Valentine.2020.1080p.BluRay.x264-BiPOLAR 5.66GB


[/url]

◎译  名 消失的情人节/My Missing Valentine
◎片  名 消失的情人節
◎年  代 2020
◎产  地 中国台湾
◎类  别 喜剧 / 爱情 / 奇幻
◎语  言 汉语普通话,闽南语
◎上映日期 2020-09-18(中国台湾)
◎IMDb评分  7.4/10 from 527 users
◎  
◎豆瓣评分 7.1/10 from 11320 users
◎ 
◎片  长 119分钟
◎导  演 陈玉勋 Yu-Hsun Chen
◎编  剧 陈玉勋 Yu-Hsun Chen
◎主  演 李霈瑜 Patty Lee
       刘冠廷 Kuan-ting Liu
       黑嘉嘉 Joanne Missingham
       周群达 Duncan Lai
       林美秀 Mei-shiu Lin
       马志翔 Umin Boya
       陈竹昇 Chu-sheng Chen
       庄益增 Cres Chuang
       林书宇 Tom Lin
       顾宝明 Pao-Ming Ku
       林美照 Mei-Chao Lin
       梁赫群 Vincent Liang
       郎祖筠 Tsu-Yun Lang
       郭文颐 Berry Wen-i Kuo
       海芬 Heaven Hai
       张再兴 Tsai-Hsing Chang
       喜翔 Hsiang Hsi
       白静宜 Ching-i Pai
       黄连煜 Ayugo Huang
       许时豪 Kerr Hsu
       王自强 Tzu-Chiang Wang
       曾威豪 Soso Tseng
       范足妹 Chu-Mei Fan
       郭玄奇 Hsuan-Chi Kuo
       白小樱 Xiao-Ying Bai

◎标  签 爱情 | 台湾 | 奇幻 | 2020 | 台灣電影 | 中国台湾 | 陈玉勋 | 台灣

◎简  介

  公车司机阿泰(刘冠廷/饰),是一个动作慢吞吞、连手表的时间、地震的感应都比别人慢的奇葩。他每天都会去邮局,找柜员杨晓淇(李霈瑜/饰)寄一封不知道给谁的平信。柜员杨晓淇和阿泰完全相反,是个凡事抢拍的超级急性子,唯独感情生活毫无进展,年近三十还是母胎单身。情人节前夕,杨晓淇被天菜阳光男刘老师(周群达Duncan/饰)搭讪,终于情窦初开的晓淇和刘老师天雷勾动地火;想不到一觉醒来,刘老师再无音讯、而且情人节居然已经过了?!每天来寄信的阿泰也再也没出现过...毫无记忆的杨晓淇,开始了一趟寻找真相的奇幻旅程...
Video
ID                                       : 1
Format                                   : AVC
Format/Info                              : Advanced Video Codec
Format profile                           :
Format settings                          : CABAC / 5 Ref Frames
Format settings, CABAC                   : Yes
Format settings, Reference frames        : 5 frames
Codec ID                                 : V_MPEG4/ISO/AVC
Duration                                 : 1 h 59 min
Bit rate                                 : 4 934 kb/s
Width                                    : 1 920 pixels
Height                                   : 804 pixels
Display aspect ratio                     : 2.40:1
Frame rate mode                          : Constant
Frame rate                               : 24.000 FPS
Color space                              : YUV
Chroma subsampling                       : 4:2:0
Bit depth                                : 8 bits
Scan type                                : Progressive
Bits/(Pixel*Frame)                       : 0.133
Stream size                              : 4.10 GiB (73%)
Writing library                          : x264 core 161 r3027 4121277
Encoding settings                        : cabac=1 / ref=5 / deblock=1:-3:-3 / analyse=0x3:0x133 / me=umh / subme=10 / psy=1 / psy_rd=1.00:0.15 / mixed_ref=1 / me_range=24 / chroma_me=1 / trellis=2 / 8x8dct=1 / cqm=0 / deadzone=21,11 / fast_pskip=1 / chroma_qp_offset=-3 / threads=18 / lookahead_threads=3 / sliced_threads=0 / nr=0 / decimate=1 / interlaced=0 / bluray_compat=0 / constrained_intra=0 / bframes=8 / b_pyramid=2 / b_adapt=2 / b_bias=0 / direct=3 / weightb=1 / open_gop=0 / weightp=2 / keyint=250 / keyint_min=24 / scenecut=40 / intra_refresh=0 / rc_lookahead=60 / rc=crf / mbtree=1 / crf=17.0 / qcomp=0.60 / qpmin=0 / qpmax=69 / qpstep=4 / ip_ratio=1.40 / aq=3:0.80
Language                                 : English
Default                                  : Yes
Forced                                   : No
Color range                              : Limited
Matrix coefficients                      : BT.709

Audio
ID                                       : 2
Format                                   : DTS XLL
Format/Info                              : Digital Theater Systems
Commercial name                          : DTS-HD Master Audio
Codec ID                                 : A_DTS
Duration                                 : 1 h 59 min
Bit rate mode                            : Variable
Bit rate                                 : 1 815 kb/s
Channel(s)                               : 6 channels
Channel layout                           : C L R Ls Rs LFE
Sampling rate                            : 48.0 kHz
Frame rate                               : 93.750 FPS (512 SPF)
Bit depth                                : 16 bits
Compression mode                         : Lossless
Stream size                              : 1.51 GiB (27%)
Title                                    : Mandarin
Language                                 : Chinese
Default                                  : Yes
Forced                                   : No

Text #1
ID                                       : 3
Format                                   : UTF-8
Codec ID                                 : S_TEXT/UTF8
Codec ID/Info                            : UTF-8 Plain Text
Duration                                 : 1 h 49 min
Bit rate                                 : 45 b/s
Count of elements                        : 1663
Stream size                              : 36.8 KiB (0%)
Title                                    : English
Language                                 : English
Default                                  : Yes
Forced                                   : Yes

Text #2
ID                                       : 4
Format                                   : PGS
Muxing mode                              : zlib
Codec ID                                 : S_HDMV/PGS
Codec ID/Info                            : Picture based subtitle format used on BDs/HD-DVDs
Duration                                 : 1 h 49 min
Bit rate                                 : 24.4 kb/s
Count of elements                        : 2117
Stream size                              : 19.2 MiB (0%)
Title                                    : English
Language                                 : English
Default                                  : No
Forced                                   : No

Text #3
ID                                       : 5
Format                                   : PGS
Muxing mode                              : zlib
Codec ID                                 : S_HDMV/PGS
Codec ID/Info                            : Picture based subtitle format used on BDs/HD-DVDs
Duration                                 : 1 h 49 min
Bit rate                                 : 26.6 kb/s
Count of elements                        : 2059
Stream size                              : 20.8 MiB (0%)
Title                                    : Chinese (traditional)
Language                                 : Chinese
Default                                  : No
Forced                                   : No

Menu
00:00:00.000                             : en:00:00:00.000
00:10:17.125                             : en:00:10:17.125
00:19:50.750                             : en:00:19:50.750
00:30:16.958                             : en:00:30:16.958
00:39:53.667                             : en:00:39:53.667
00:50:30.542                             : en:00:50:30.542
00:59:04.083                             : en:00:59:04.083
01:08:34.167                             : en:01:08:34.167
01:20:30.042                             : en:01:20:30.042
01:30:00.125                             : en:01:30:00.125
01:39:23.708                             : en:01:39:23.708
01:48:49.000                             : en:01:48:49.000




                                                                                                                                                                                                        
                                                                                                                                                                                                                                                                                                                                                                                                                                                                                                                                                                                                                                                                                                                                                                                                                                                        
a73bb14f6096f87dce95278fe92b0a3f.zip (29 KB, 下载次数: 0)

回复

使用道具 举报

小黑屋|西西论坛

本网站所有资源来自网络,如无意中侵犯了您的权益,请发邮件至 [email protected],立即清除相关链接

GMT+8, 2021-3-2 04:00 , Processed in 0.087601 second(s), 23 queries .

Powered by Discuz! X3.2

© 2001-2013 Comsenz Inc.

快速回复 返回顶部 返回列表