西西论坛

 找回密码
 立即注册
搜索

茧 Cocoon.2020.1080p.BluRay.x264-ORBS 10.67GB

[复制链接]
电影首发 发表于 2021-2-1 20:07:45 | 显示全部楼层 |阅读模式
-->
帖子完整标题:茧 Cocoon.2020.1080p.BluRay.x264-ORBS 10.67GB


[/url]

◎译  名 茧/Cocoon/夏日蜕变/青春简单爱(台)
◎片  名 Kokon
◎年  代 2020
◎产  地 德国
◎类  别 剧情 / 同性
◎语  言 德语
◎上映日期 2020-02-21(柏林电影节)
◎IMDb评分  6.8/10 from 312 users
◎  
◎豆瓣评分 6.8/10 from 715 users
◎ 
◎片  长 95分钟
◎导  演 莱奥妮·克里彭多夫 Leonie Krippendorff
◎编  剧 莱奥妮·克里彭多夫 Leonie Krippendorff
◎主  演 莱娜·乌泽多夫斯基 Lena Urzendowsky
       杰拉·哈斯 Jella Haase
       莱娜·克棱克 Lena Klenke
       埃琳娜·维尔达诺娃 Elina Vildanova

◎标  签 德国 | 女性 | LGBT | 成长 | 2020 | Les | 德国电影 | 剧情

◎简  介

  在波光粼粼的仲夏时节,来自克鲁兹堡的年轻诺拉有许多第一次:月经、吸食大麻、发现性欲。还有罗米。这两位年轻女子,由莉娜·乌尔赞多斯基和杰拉·哈斯扮演,令人印象深刻,温柔地接近对方。

◎获奖情况

  第70届柏林国际电影节 ?(2020)
  泰迪熊奖(提名) 莱奥妮·克里彭多夫
  新生代青年单元最佳影片(提名) 莱奥妮·克里彭多夫
Video
ID                                       : 1
Format                                   : AVC
Format/Info                              : Advanced Video Codec
Format profile                           :
Format settings                          : CABAC / 4 Ref Frames
Format settings, CABAC                   : Yes
Format settings, Reference frames        : 4 frames
Codec ID                                 : V_MPEG4/ISO/AVC
Duration                                 : 1 h 35 min
Bit rate                                 : 14.0 Mb/s
Width                                    : 1 920 pixels
Height                                   : 1 038 pixels
Display aspect ratio                     : 1.85:1
Frame rate mode                          : Constant
Frame rate                               : 24.000 FPS
Color space                              : YUV
Chroma subsampling                       : 4:2:0
Bit depth                                : 8 bits
Scan type                                : Progressive
Bits/(Pixel*Frame)                       : 0.293
Stream size                              : 9.33 GiB (87%)
Writing library                          : x264 core 161 r3027 4121277
Encoding settings                        : cabac=1 / ref=4 / deblock=1:-3:-3 / analyse=0x3:0x133 / me=umh / subme=10 / psy=1 / psy_rd=1.20:0.00 / mixed_ref=1 / me_range=24 / chroma_me=1 / trellis=2 / 8x8dct=1 / cqm=0 / deadzone=21,11 / fast_pskip=0 / chroma_qp_offset=-2 / threads=24 / lookahead_threads=4 / sliced_threads=0 / nr=0 / decimate=0 / interlaced=0 / bluray_compat=0 / constrained_intra=0 / bframes=8 / b_pyramid=2 / b_adapt=2 / b_bias=0 / direct=3 / weightb=1 / open_gop=0 / weightp=2 / keyint=250 / keyint_min=24 / scenecut=40 / intra_refresh=0 / rc_lookahead=60 / rc=crf / mbtree=1 / crf=19.5 / qcomp=0.60 / qpmin=0 / qpmax=69 / qpstep=4 / ip_ratio=1.40 / aq=3:0.90
Default                                  : Yes
Forced                                   : No
Color range                              : Limited
Matrix coefficients                      : BT.709

Audio
ID                                       : 2
Format                                   : DTS XLL
Format/Info                              : Digital Theater Systems
Commercial name                          : DTS-HD Master Audio
Codec ID                                 : A_DTS
Duration                                 : 1 h 35 min
Bit rate mode                            : Variable
Bit rate                                 : 2 002 kb/s
Channel(s)                               : 6 channels
Channel layout                           : C L R Ls Rs LFE
Sampling rate                            : 48.0 kHz
Frame rate                               : 93.750 FPS (512 SPF)
Bit depth                                : 16 bits
Compression mode                         : Lossless
Stream size                              : 1.33 GiB (12%)
Language                                 : German
Default                                  : Yes
Forced                                   : No

Text #1
ID                                       : 3
Format                                   : UTF-8
Codec ID                                 : S_TEXT/UTF8
Codec ID/Info                            : UTF-8 Plain Text
Duration                                 : 1 h 31 min
Bit rate                                 : 33 b/s
Count of elements                        : 753
Stream size                              : 22.3 KiB (0%)
Title                                    : English (Forced)
Language                                 : English
Default                                  : Yes
Forced                                   : Yes

Text #2
ID                                       : 4
Format                                   : PGS
Muxing mode                              : zlib
Codec ID                                 : S_HDMV/PGS
Codec ID/Info                            : Picture based subtitle format used on BDs/HD-DVDs
Duration                                 : 1 h 34 min
Bit rate                                 : 22.0 kb/s
Count of elements                        : 2062
Stream size                              : 14.8 MiB (0%)
Title                                    : SDH
Language                                 : English
Default                                  : No
Forced                                   : No

Text #3
ID                                       : 5
Format                                   : PGS
Muxing mode                              : zlib
Codec ID                                 : S_HDMV/PGS
Codec ID/Info                            : Picture based subtitle format used on BDs/HD-DVDs
Duration                                 : 1 h 31 min
Bit rate                                 : 17.9 kb/s
Count of elements                        : 1506
Stream size                              : 11.7 MiB (0%)
Language                                 : English
Default                                  : No
Forced                                   : No

Menu
00:00:00.000                             : en:Chapter 01
00:07:56.125                             : en:Chapter 02
00:15:46.833                             : en:Chapter 03
00:22:58.250                             : en:Chapter 04
00:30:42.667                             : en:Chapter 05
00:40:42.583                             : en:Chapter 06
00:47:24.250                             : en:Chapter 07
00:56:42.667                             : en:Chapter 08
01:04:35.333                             : en:Chapter 09
01:10:02.875                             : en:Chapter 10
01:20:13.208                             : en:Chapter 11
01:32:21.500                             : en:Chapter 12
[/url]



                                                                                                                                                                                                        
                                                                                                                                                                                                                                                                                                                                                                                                                                                                                                                                                                                                                                                                                                                                                                                                                                                        
c6e146cc3c0ec908dc81ca95146c230b.zip (54.04 KB, 下载次数: 0)

回复

使用道具 举报

小黑屋|西西论坛

本网站所有资源来自网络,如无意中侵犯了您的权益,请发邮件至 [email protected],立即清除相关链接

GMT+8, 2021-3-2 03:41 , Processed in 0.100284 second(s), 28 queries .

Powered by Discuz! X3.2

© 2001-2013 Comsenz Inc.

快速回复 返回顶部 返回列表