西西论坛

 找回密码
 立即注册
搜索

进军脱口秀/开场一刻 The.Opening.Act.2020.1080p.BluRay.x264-MiMiC 9.40GB

[复制链接]
电影首发 发表于 2021-2-1 20:07:45 | 显示全部楼层 |阅读模式
-->
帖子完整标题:进军脱口秀/开场一刻 The.Opening.Act.2020.1080p.BluRay.x264-MiMiC 9.40GB


[/url]

◎译  名 进军脱口秀/开场一刻
◎片  名 The Opening Act
◎年  代 2020
◎产  地 美国
◎类  别 喜剧
◎语  言 英语
◎上映日期 2020-10-16(美国)
◎IMDb评分  6/10 from 657 users
◎  
◎豆瓣评分 /10 from 0 users
◎ 
◎导  演 史蒂夫·伯恩 Steve Byrne
◎编  剧 史蒂夫·伯恩 Steve Byrne
◎主  演 欧阳万成 Jimmy O. Yang
       黛比·瑞恩 Debby Ryan
       莫洽·梦若 Mircea Monroe
       比尔·伯尔 Bill Burr
       郑肯 Ken Jeong
       埃莱扎·施莱辛格 Iliza Shlesinger
       惠特妮·卡明 Whitney Cummings
       瓦莱丽·阿兹林 Valerie Azlynn
       艾什丽·芬克 Ashley Fink
       汤姆·赛格拉 Tom Segura
       杰梅因·福勒 Jermaine Fowler
       安赫拉·约翰逊 Anjelah N. Johnson
       费利佩·埃斯帕扎 Felipe Esparza
       尼尔·布伦南 Neal Brennan
       拉塞尔·皮特斯 Russell Peters
       亚历克斯·莫法特 Alex Moffat
       西蒙·瑞 Simon Rhee
       桑德拉·罗斯科 Sandra Rosko
       邦尼·赫尔曼 Bonnie Hellman
       梅丽莎·保罗 Melissa Paulo
       Antonio Raul Corbo

◎标  签 喜剧 | 2020 | 脱口秀 | 美国 | 搞笑 | 单口相声 | 欧阳万成 | 成长

◎简  介

  主角Will O'Brien梦想成为一名单口喜剧演员。当他有机会为自己的偶像Billy G做开场表演时,他必须决定是继续自己已规划好的生活,还是去逐梦喜剧圈....
Video
ID                                       : 1
Format                                   : AVC
Format/Info                              : Advanced Video Codec
Format profile                           :
Format settings                          : CABAC / 4 Ref Frames
Format settings, CABAC                   : Yes
Format settings, Reference frames        : 4 frames
Codec ID                                 : V_MPEG4/ISO/AVC
Duration                                 : 1 h 30 min
Bit rate                                 : 11.4 Mb/s
Width                                    : 1 920 pixels
Height                                   : 1 080 pixels
Display aspect ratio                     : 16:9
Frame rate mode                          : Constant
Frame rate                               : 23.976 (24000/1001/189150) FPS
Color space                              : YUV
Chroma subsampling                       : 4:2:0
Bit depth                                : 8 bits
Scan type                                : Progressive
Bits/(Pixel*Frame)                       : 0.230
Stream size                              : 7.20 GiB (77%)
Writing library                          : x264 core 161 r3033 0d754ec
Encoding settings                        : cabac=1 / ref=4 / deblock=1:0:0 / analyse=0x3:0x133 / me=umh / subme=9 / psy=1 / psy_rd=1.00:0.00 / mixed_ref=1 / me_range=16 / chroma_me=1 / trellis=2 / 8x8dct=1 / cqm=0 / deadzone=21,11 / fast_pskip=0 / chroma_qp_offset=-2 / threads=18 / lookahead_threads=1 / sliced_threads=0 / nr=0 / decimate=0 / interlaced=0 / bluray_compat=0 / constrained_intra=0 / bframes=3 / b_pyramid=2 / b_adapt=2 / b_bias=0 / direct=3 / weightb=1 / open_gop=0 / weightp=2 / keyint=240 / keyint_min=23 / scenecut=40 / intra_refresh=0 / rc=crf / mbtree=0 / crf=19.5 / qcomp=0.60 / qpmin=0 / qpmax=69 / qpstep=4 / ip_ratio=1.40 / pb_ratio=1.30 / aq=1:1.00
Default                                  : Yes
Forced                                   : No
Color range                              : Limited
Matrix coefficients                      : BT.709

Audio
ID                                       : 2
Format                                   : DTS XLL
Format/Info                              : Digital Theater Systems
Commercial name                          : DTS-HD Master Audio
Codec ID                                 : A_DTS
Duration                                 : 1 h 30 min
Bit rate mode                            : Variable
Bit rate                                 : 3 475 kb/s
Channel(s)                               : 6 channels
Channel layout                           : C L R Ls Rs LFE
Sampling rate                            : 48.0 kHz
Frame rate                               : 93.750 FPS (512 SPF)
Bit depth                                : 24 bits
Compression mode                         : Lossless
Stream size                              : 2.19 GiB (23%)
Language                                 : English
Default                                  : Yes
Forced                                   : No

Text
ID                                       : 3
Format                                   : PGS
Muxing mode                              : zlib
Codec ID                                 : S_HDMV/PGS
Codec ID/Info                            : Picture based subtitle format used on BDs/HD-DVDs
Duration                                 : 1 h 30 min
Bit rate                                 : 40.5 kb/s
Count of elements                        : 3868
Stream size                              : 26.1 MiB (0%)
Language                                 : English
Default                                  : No
Forced                                   : No

Menu
00:00:00.000                             : en:Chapter 01
00:08:51.990                             : en:Chapter 02
00:21:54.104                             : en:Chapter 03
00:34:14.386                             : en:Chapter 04
01:00:17.489                             : en:Chapter 05
01:25:55.150                             : en:Chapter 06
[/url]



                                                                                                                                                                                                        
                                                                                                                                                                                                                                                                                                                                                                                                                                                                                                                                                                                                                                                                                                                                                                                                                                                        
8afb167efd1464f535f0f9b86de073dd.zip (47.72 KB, 下载次数: 0)

回复

使用道具 举报

小黑屋|西西论坛

本网站所有资源来自网络,如无意中侵犯了您的权益,请发邮件至 [email protected],立即清除相关链接

GMT+8, 2021-3-9 09:56 , Processed in 0.104818 second(s), 23 queries .

Powered by Discuz! X3.2

© 2001-2013 Comsenz Inc.

快速回复 返回顶部 返回列表