西西论坛

 找回密码
 立即注册
搜索

布拉多 Bulado.2020.720p.BluRay.x264-HDEX 3.03GB

[复制链接]
电影首发 发表于 2021-2-1 19:42:15 | 显示全部楼层 |阅读模式
-->
帖子完整标题:布拉多 Bulado.2020.720p.BluRay.x264-HDEX 3.03GB


[/url]

◎译  名 布拉多
◎片  名 Buladó
◎年  代 2020
◎产  地 荷兰 The Netherlands
◎类  别 
◎语  言 帕皮阿门托语 Papiamento,荷兰语 Dutch
◎上映日期 2020-10-01(荷兰)
◎IMDb评分  6.9/10 from 741 users
◎  
◎豆瓣评分 /10 from 0 users
◎ 
◎片  长 87分钟
◎主  演 Felix de Rooy
       Everon Jackson Hooi

◎标  签 荷兰 | 电影 | 库拉索

◎简  介

  Headstrong girl Kenza lives with her father Ouira and grandfather Weljo on a car wrecking yard in the countryside of Cura?ao. The two men are opposites that don't particularly attract: Ouira is a determined and rational police officer, while Weljo identifies with the original inhabitants and spirituality of the island. As Weljo wishes to prepare his passing to the world of spirits, the relationship between Ouira en Weljo starts to escalate and the eleven-year-old Kenza searches for her own path in-between the two extremes. The down-to-earth and avoidant mentality of Ouira no longer offers her all that she needs and slowly she opens up to the more mystical and comforting traditions of her grandfather.
Video
ID                                       : 1
Format                                   : AVC
Format/Info                              : Advanced Video Codec
Format profile                           :
Format settings                          : CABAC / 8 Ref Frames
Format settings, CABAC                   : Yes
Format settings, Reference frames        : 8 frames
Codec ID                                 : V_MPEG4/ISO/AVC
Duration                                 : 1 h 27 min
Bit rate                                 : 4 518 kb/s
Width                                    : 1 280 pixels
Height                                   : 538 pixels
Display aspect ratio                     : 2.40:1
Frame rate mode                          : Constant
Frame rate                               : 24.000 FPS
Color space                              : YUV
Chroma subsampling                       : 4:2:0
Bit depth                                : 8 bits
Scan type                                : Progressive
Bits/(Pixel*Frame)                       : 0.273
Stream size                              : 2.75 GiB (91%)
Writing library                          : x264 core 161 r3033 0d754ec
Encoding settings                        : cabac=1 / ref=8 / deblock=1:-3:-3 / analyse=0x3:0x133 / me=umh / subme=9 / psy=1 / psy_rd=1.00:0.00 / mixed_ref=1 / me_range=32 / chroma_me=1 / trellis=2 / 8x8dct=1 / cqm=0 / deadzone=21,11 / fast_pskip=0 / chroma_qp_offset=-2 / threads=12 / lookahead_threads=2 / sliced_threads=0 / nr=0 / decimate=0 / interlaced=0 / bluray_compat=0 / constrained_intra=0 / bframes=9 / b_pyramid=2 / b_adapt=2 / b_bias=0 / direct=3 / weightb=1 / open_gop=0 / weightp=2 / keyint=250 / keyint_min=24 / scenecut=40 / intra_refresh=0 / rc=crf / mbtree=0 / crf=17.0 / qcomp=0.60 / qpmin=0 / qpmax=69 / qpstep=4 / ip_ratio=1.40 / pb_ratio=1.30 / aq=3:0.88
Default                                  : Yes
Forced                                   : No
Color range                              : Limited
Matrix coefficients                      : BT.709

Audio
ID                                       : 2
Format                                   : AC-3
Format/Info                              : Audio Coding 3
Commercial name                          : Dolby Digital
Codec ID                                 : A_AC3
Duration                                 : 1 h 27 min
Bit rate mode                            : Constant
Bit rate                                 : 448 kb/s
Channel(s)                               : 6 channels
Channel layout                           : L R C LFE Ls Rs
Sampling rate                            : 48.0 kHz
Frame rate                               : 31.250 FPS (1536 SPF)
Compression mode                         : Lossy
Stream size                              : 280 MiB (9%)
Title                                    : Papiaments
Language                                 : Auxiliary Language Association
Service kind                             : Complete Main
Default                                  : No
Forced                                   : No

Text #1
ID                                       : 3
Format                                   : PGS
Muxing mode                              : zlib
Codec ID                                 : S_HDMV/PGS
Codec ID/Info                            : Picture based subtitle format used on BDs/HD-DVDs
Duration                                 : 1 h 21 min
Bit rate                                 : 5 231 b/s
Count of elements                        : 487
Stream size                              : 3.06 MiB (0%)
Title                                    : Dutch
Language                                 : Dutch
Default                                  : No
Forced                                   : No

Text #2
ID                                       : 4
Format                                   : PGS
Muxing mode                              : zlib
Codec ID                                 : S_HDMV/PGS
Codec ID/Info                            : Picture based subtitle format used on BDs/HD-DVDs
Duration                                 : 1 h 21 min
Bit rate                                 : 5 983 b/s
Count of elements                        : 561
Stream size                              : 3.50 MiB (0%)
Title                                    : English
Language                                 : English
Default                                  : No
Forced                                   : No

Text #3
ID                                       : 5
Format                                   : UTF-8
Codec ID                                 : S_TEXT/UTF8
Codec ID/Info                            : UTF-8 Plain Text
Duration                                 : 1 h 21 min
Bit rate                                 : 12 b/s
Count of elements                        : 280
Stream size                              : 7.33 KiB (0%)
Title                                    : English
Default                                  : Yes
Forced                                   : Yes

Menu
00:00:00.000                             : en:Chapter 01
00:14:40.000                             : en:Chapter 02
00:29:31.250                             : en:Chapter 03
00:46:40.625                             : en:Chapter 04
01:00:50.000                             : en:Chapter 05
01:15:00.000                             : en:Chapter 06
[/url]



                                                                                                                                                                                                        
                                                                                                                                                                                                                                                                                                                                                                                                                                                                                                                                                                                                                                                                                                                                                                                                                                                        
63347814db7cc077222ffbde888d0ed8.zip (30.95 KB, 下载次数: 0)

回复

使用道具 举报

小黑屋|西西论坛

本网站所有资源来自网络,如无意中侵犯了您的权益,请发邮件至 [email protected],立即清除相关链接

GMT+8, 2021-3-9 09:09 , Processed in 0.088004 second(s), 23 queries .

Powered by Discuz! X3.2

© 2001-2013 Comsenz Inc.

快速回复 返回顶部 返回列表