西西论坛

 找回密码
 立即注册
搜索

不羁的野马 Chino.1973.720p.BluRay.x264-GAZER 5.10GB

[复制链接]
电影首发 发表于 2021-2-1 19:42:15 | 显示全部楼层 |阅读模式
-->
帖子完整标题:不羁的野马 Chino.1973.720p.BluRay.x264-GAZER 5.10GB


[/url]

◎译  名 不羁的野马/The Valdez Horses/Valdez il mezzosangue
◎片  名 Chino
◎年  代 1973
◎产  地 意大利,西班牙,法国
◎类  别 西部
◎语  言 英语
◎上映日期 1973 / 1973-09-14(意大利)
◎IMDb评分  6/10 from 1749 users
◎  
◎豆瓣评分 /10 from 0 users
◎ 
◎片  长 98 分钟
◎导  演 约翰·斯特奇斯 John Sturges / 杜里奥·科莱蒂 Duilio Coletti
◎编  剧 Lee Hoffman / 克莱尔·胡法克 Clair Huffaker / Rafael J. Salvia / 马西莫·德·丽塔 Massimo De Rita / 阿尔杜伊诺·马尤里 Arduino Maiuri
◎主  演 查尔斯·布朗森 Charles Bronson
       吉尔·爱兰德 Jill Ireland
       马塞尔·博祖菲 Marcel Bozzuffi
       文森特·范帕滕 Vincent Van Patten
       福斯托·托齐 Fausto Tozzi
       埃托雷·曼尼 Ettore Manni
       柯拉朵加伊帕 Corrado Gaipa
       José Nieto
       黛安娜·洛瑞斯 Diana Lorys
       Henri Vidon
       Luis Prendes

◎标  签 意大利 | 西部 | JillIreland | 70 | tik | Spaghetti-Western | CharlesBronson | 7.4

◎简  介

  暂无相关剧情介绍
Video
ID                                       : 1
Format                                   : AVC
Format/Info                              : Advanced Video Codec
Format profile                           :
Format settings                          : CABAC / 9 Ref Frames
Format settings, CABAC                   : Yes
Format settings, Reference frames        : 9 frames
Codec ID                                 : V_MPEG4/ISO/AVC
Duration                                 : 1 h 37 min
Bit rate                                 : 7 095 kb/s
Width                                    : 1 280 pixels
Height                                   : 692 pixels
Display aspect ratio                     : 1.85:1
Frame rate mode                          : Constant
Frame rate                               : 23.976 (24000/1001/189150) FPS
Color space                              : YUV
Chroma subsampling                       : 4:2:0
Bit depth                                : 8 bits
Scan type                                : Progressive
Bits/(Pixel*Frame)                       : 0.334
Stream size                              : 4.82 GiB (95%)
Writing library                          : x264 core 161 r3027 4121277
Encoding settings                        : cabac=1 / ref=9 / deblock=1:-3:-3 / analyse=0x3:0x133 / me=umh / subme=10 / psy=1 / psy_rd=1.50:0.15 / mixed_ref=1 / me_range=24 / chroma_me=1 / trellis=2 / 8x8dct=1 / cqm=0 / deadzone=21,11 / fast_pskip=0 / chroma_qp_offset=-3 / threads=22 / lookahead_threads=3 / sliced_threads=0 / nr=0 / decimate=0 / interlaced=0 / bluray_compat=0 / constrained_intra=0 / bframes=8 / b_pyramid=2 / b_adapt=2 / b_bias=0 / direct=3 / weightb=1 / open_gop=0 / weightp=2 / keyint=250 / keyint_min=23 / scenecut=40 / intra_refresh=0 / rc_lookahead=60 / rc=crf / mbtree=1 / crf=18.0 / qcomp=0.60 / qpmin=0 / qpmax=69 / qpstep=4 / ip_ratio=1.40 / aq=3:0.50
Default                                  : Yes
Forced                                   : No
Color range                              : Limited
Matrix coefficients                      : BT.709

Audio #1
ID                                       : 2
Format                                   : FLAC
Format/Info                              : Free Lossless Audio Codec
Codec ID                                 : A_FLAC
Duration                                 : 1 h 37 min
Bit rate mode                            : Variable
Bit rate                                 : 296 kb/s
Channel(s)                               : 1 channel
Channel layout                           : C
Sampling rate                            : 48.0 kHz
Frame rate                               : 11.719 FPS (4096 SPF)
Bit depth                                : 16 bits
Compression mode                         : Lossless
Stream size                              : 206 MiB (4%)
Writing library                          : libFLAC 1.3.2 (UTC 2017-01-01)
Language                                 : English
Default                                  : Yes
Forced                                   : No

Audio #2
ID                                       : 3
Format                                   : AAC LC
Format/Info                              : Advanced Audio Codec Low Complexity
Codec ID                                 : A_AAC-2
Duration                                 : 1 h 37 min
Bit rate                                 : 105 kb/s
Channel(s)                               : 2 channels
Channel layout                           : L R
Sampling rate                            : 48.0 kHz
Frame rate                               : 46.875 FPS (1024 SPF)
Compression mode                         : Lossy
Delay relative to video                  : 20 ms
Stream size                              : 72.8 MiB (1%)
Title                                    : Commentary
Language                                 : English
Default                                  : No
Forced                                   : No

Text
ID                                       : 4
Format                                   : PGS
Muxing mode                              : zlib
Codec ID                                 : S_HDMV/PGS
Codec ID/Info                            : Picture based subtitle format used on BDs/HD-DVDs
Duration                                 : 1 h 36 min
Bit rate                                 : 22.7 kb/s
Count of elements                        : 1676
Stream size                              : 15.7 MiB (0%)
Title                                    : SDH
Language                                 : English
Default                                  : No
Forced                                   : No

Menu
00:00:00.000                             : en:Chapter 01
00:10:03.144                             : en:Chapter 02
00:18:24.770                             : en:Chapter 03
00:30:03.218                             : en:Chapter 04
00:37:04.055                             : en:Chapter 05
00:47:37.772                             : en:Chapter 06
00:59:35.405                             : en:Chapter 07
01:07:12.237                             : en:Chapter 08
01:14:45.272                             : en:Chapter 09
01:20:08.053                             : en:Chapter 10
01:27:42.674                             : en:Chapter 11
[/url]



                                                                                                                                                                                                        
                                                                                                                                                                                                                                                                                                                                                                                                                                                                                                                                                                                                                                                                                                                                                                                                                                                        
190f68e3b1c5f8efd04489015aed23c2.zip (26.15 KB, 下载次数: 0)

回复

使用道具 举报

小黑屋|西西论坛

本网站所有资源来自网络,如无意中侵犯了您的权益,请发邮件至 [email protected],立即清除相关链接

GMT+8, 2021-2-28 20:31 , Processed in 0.129113 second(s), 23 queries .

Powered by Discuz! X3.2

© 2001-2013 Comsenz Inc.

快速回复 返回顶部 返回列表