西西论坛

 找回密码
 立即注册
搜索

小英雄与大刺客 Eyewitness.1970.720p.BluRay.x264-GAZER 4.68GB

[复制链接]
电影首发 发表于 2021-2-1 19:42:15 | 显示全部楼层 |阅读模式
-->
帖子完整标题:小英雄与大刺客 Eyewitness.1970.720p.BluRay.x264-GAZER 4.68GB


[/url]

◎译  名 小英雄与大刺客/Sudden Terror/小证人
◎片  名 Eyewitness
◎年  代 1970
◎产  地 英国
◎类  别 剧情 / 惊悚 / 犯罪
◎语  言 英语
◎上映日期 1970-06(英国)
◎IMDb评分  6.1/10 from 488 users
◎  
◎豆瓣评分 /10 from 0 users
◎ 
◎片  长 91 分钟
◎导  演 约翰·霍克 John Hough
◎编  剧 罗纳德·哈伍德 Ronald Harwood
◎主  演 彼得·鲍勒斯 Peter Bowles
       皮特·沃恩 Peter Vaughan
       贝蒂·马斯登 Betty Marsden
       马克·莱斯特 Mark Lester
       约瑟夫福斯特 Joseph Fürst
       Jonathan Burn
       Tony Bonner
       莱昂内尔·杰弗里斯 Lionel Jeffries
       苏珊·乔治 Susan George
       大卫·洛奇 David Lodge
       杰瑞米·坎普 Jeremy Kemp

◎标  签 英国 | 英国电影 | 惊悚 | 剧情 | 犯罪 | 1970 | MarkLester | 证人

◎简  介

  剧情介绍一名小孩在无意中见到了刺杀政客的杀手面孔,虽然除了杀手外没有人相信他的故事,但杀手还是对他展开了疯狂追杀。苏珊.乔治、莱昂内尔.杰弗里斯等的演出营造了相当紧凑逼人的气氛。但导演的手法太过于流畅,近乎卖弄。片中几段追杀的场面十分紧张刺激,很能掌握住观众的情绪。
Video
ID                                       : 1
Format                                   : AVC
Format/Info                              : Advanced Video Codec
Format profile                           :
Format settings                          : CABAC / 9 Ref Frames
Format settings, CABAC                   : Yes
Format settings, Reference frames        : 9 frames
Codec ID                                 : V_MPEG4/ISO/AVC
Duration                                 : 1 h 31 min
Bit rate                                 : 6 931 kb/s
Width                                    : 1 194 pixels
Height                                   : 720 pixels
Display aspect ratio                     : 5:3
Frame rate mode                          : Constant
Frame rate                               : 24.000 FPS
Color space                              : YUV
Chroma subsampling                       : 4:2:0
Bit depth                                : 8 bits
Scan type                                : Progressive
Bits/(Pixel*Frame)                       : 0.336
Stream size                              : 4.45 GiB (95%)
Writing library                          : x264 core 161 r3027 4121277
Encoding settings                        : cabac=1 / ref=9 / deblock=1:-3:-3 / analyse=0x3:0x133 / me=umh / subme=10 / psy=1 / psy_rd=1.20:0.00 / mixed_ref=1 / me_range=24 / chroma_me=1 / trellis=2 / 8x8dct=1 / cqm=0 / deadzone=21,11 / fast_pskip=0 / chroma_qp_offset=-2 / threads=6 / lookahead_threads=1 / sliced_threads=0 / nr=0 / decimate=0 / interlaced=0 / bluray_compat=0 / constrained_intra=0 / bframes=8 / b_pyramid=2 / b_adapt=2 / b_bias=0 / direct=3 / weightb=1 / open_gop=0 / weightp=2 / keyint=250 / keyint_min=24 / scenecut=40 / intra_refresh=0 / rc_lookahead=60 / rc=crf / mbtree=1 / crf=18.5 / qcomp=0.60 / qpmin=0 / qpmax=69 / qpstep=4 / ip_ratio=1.40 / aq=3:0.90
Default                                  : Yes
Forced                                   : No
Color range                              : Limited
Matrix coefficients                      : BT.709

Audio
ID                                       : 2
Format                                   : FLAC
Format/Info                              : Free Lossless Audio Codec
Codec ID                                 : A_FLAC
Duration                                 : 1 h 31 min
Bit rate mode                            : Variable
Bit rate                                 : 343 kb/s
Channel(s)                               : 2 channels
Channel layout                           : L R
Sampling rate                            : 48.0 kHz
Frame rate                               : 11.719 FPS (4096 SPF)
Bit depth                                : 16 bits
Compression mode                         : Lossless
Stream size                              : 225 MiB (5%)
Writing library                          : libFLAC 1.3.2 (UTC 2017-01-01)
Language                                 : English
Default                                  : Yes
Forced                                   : No

Text
ID                                       : 3
Format                                   : PGS
Muxing mode                              : zlib
Codec ID                                 : S_HDMV/PGS
Codec ID/Info                            : Picture based subtitle format used on BDs/HD-DVDs
Duration                                 : 1 h 31 min
Bit rate                                 : 29.0 kb/s
Count of elements                        : 1871
Stream size                              : 19.0 MiB (0%)
Title                                    : SDH
Language                                 : English
Default                                  : No
Forced                                   : No

Menu
00:00:00.000                             : en:Chapter 01
00:09:25.667                             : en:Chapter 02
00:19:33.250                             : en:Chapter 03
00:26:18.125                             : en:Chapter 04
00:33:00.458                             : en:Chapter 05
00:40:30.000                             : en:Chapter 06
00:49:17.083                             : en:Chapter 07
00:59:22.250                             : en:Chapter 08
01:05:53.833                             : en:Chapter 09
01:10:38.083                             : en:Chapter 10
01:15:00.625                             : en:Chapter 11
01:22:42.750                             : en:Chapter 12
[/url]



                                                                                                                                                                                                        
                                                                                                                                                                                                                                                                                                                                                                                                                                                                                                                                                                                                                                                                                                                                                                                                                                                        
ffb33812873eac4a2aa57b02a6c1f9f6.zip (47.46 KB, 下载次数: 0)

回复

使用道具 举报

小黑屋|西西论坛

本网站所有资源来自网络,如无意中侵犯了您的权益,请发邮件至 [email protected],立即清除相关链接

GMT+8, 2021-3-9 08:25 , Processed in 0.125478 second(s), 23 queries .

Powered by Discuz! X3.2

© 2001-2013 Comsenz Inc.

快速回复 返回顶部 返回列表