西西论坛

 找回密码
 立即注册
搜索

婚姻连系 The.Ties.2020.ITALIAN.1080p.BluRay.x264-HANDJOB 8.43GB

[复制链接]
电影首发 发表于 2021-1-29 22:41:36 | 显示全部楼层 |阅读模式
-->
帖子完整标题:婚姻连系 The.Ties.2020.ITALIAN.1080p.BluRay.x264-HANDJOB 8.43GB


[/url]

◎译  名 婚姻连系/The Ties/不爱的那些年(台)/偶断思连/婚姻纽带
◎片  名 Lacci
◎年  代 2020
◎产  地 意大利
◎类  别 剧情
◎语  言 意大利语
◎上映日期 2020-09-02(威尼斯电影节) / 2020-10-01(意大利)
◎IMDb评分  5.3/10 from 360 users
◎  
◎豆瓣评分 7.5/10 from 179 users
◎ 
◎片  长 100分钟
◎导  演 丹尼埃莱·卢凯蒂 Daniele Luchetti
◎编  剧 丹尼埃莱·卢凯蒂 Daniele Luchetti / Domenico Starnone / 弗朗西斯·皮克罗 Francesco Piccolo
◎主  演 阿尔芭·洛尔瓦彻 Alba Rohrwacher
       路易吉·洛·卡肖 Luigi Lo Cascio
       劳拉·莫兰特 Laura Morante
       西尔维奥·奥兰多 Silvio Orlando
       乔凡娜·梅索兹殴诺 Giovanna Mezzogiorno

◎标  签 意大利 | 2020 | 意大利电影 | 婚姻 | 威尼斯电影节 | 剧情 | 改编 | 文学作品改编

◎简  介

  该片聚焦相爱和不爱的人们,聚焦忠诚、忠贞、仇恨、羞愧、背叛、伤痛等。主角为意大利那不勒斯一对夫妻,30年前丈夫出轨爱上了一个年轻女子,30年后的今天,他们依然维持着婚姻关系。

◎获奖情况

  第4届平遥国际电影展 ?(2020)
  首映单元最受欢迎影片(提名) 丹尼埃莱·卢凯蒂
Video
ID                                       : 1
Format                                   : AVC
Format/Info                              : Advanced Video Codec
Format profile                           :
Format settings                          : CABAC / 5 Ref Frames
Format settings, CABAC                   : Yes
Format settings, Reference frames        : 5 frames
Codec ID                                 : V_MPEG4/ISO/AVC
Duration                                 : 1 h 39 min
Bit rate                                 : 11.4 Mb/s
Width                                    : 1 916 pixels
Height                                   : 800 pixels
Display aspect ratio                     : 2.40:1
Frame rate mode                          : Constant
Frame rate                               : 24.000 FPS
Color space                              : YUV
Chroma subsampling                       : 4:2:0
Bit depth                                : 8 bits
Scan type                                : Progressive
Bits/(Pixel*Frame)                       : 0.311
Stream size                              : 7.98 GiB (95%)
Writing library                          : x264 core 157 r2935 545de2f
Encoding settings                        : cabac=1 / ref=5 / deblock=1:-3:-3 / analyse=0x3:0x133 / me=umh / subme=10 / psy=1 / psy_rd=1.00:0.00 / mixed_ref=1 / me_range=32 / chroma_me=1 / trellis=2 / 8x8dct=1 / cqm=0 / deadzone=21,11 / fast_pskip=0 / chroma_qp_offset=-2 / threads=25 / lookahead_threads=6 / sliced_threads=0 / nr=0 / decimate=0 / interlaced=0 / bluray_compat=0 / constrained_intra=0 / bframes=16 / b_pyramid=2 / b_adapt=2 / b_bias=0 / direct=3 / weightb=1 / open_gop=0 / weightp=2 / keyint=240 / keyint_min=24 / scenecut=40 / intra_refresh=0 / rc_lookahead=60 / rc=crf / mbtree=0 / crf=15.8 / qcomp=0.60 / qpmin=0 / qpmax=69 / qpstep=4 / vbv_maxrate=62500 / vbv_bufsize=78125 / crf_max=0.0 / nal_hrd=none / filler=0 / ip_ratio=1.30 / pb_ratio=1.20 / aq=2:1.00
Default                                  : Yes
Forced                                   : No
Color range                              : Limited
Color primaries                          : BT.709
Transfer characteristics                 : BT.709
Matrix coefficients                      : BT.709

Audio
ID                                       : 2
Format                                   : AC-3
Format/Info                              : Audio Coding 3
Commercial name                          : Dolby Digital
Codec ID                                 : A_AC3
Duration                                 : 1 h 39 min
Bit rate mode                            : Constant
Bit rate                                 : 640 kb/s
Channel(s)                               : 6 channels
Channel layout                           : L R C LFE Ls Rs
Sampling rate                            : 48.0 kHz
Frame rate                               : 31.250 FPS (1536 SPF)
Compression mode                         : Lossy
Stream size                              : 457 MiB (5%)
Language                                 : Italian
Service kind                             : Complete Main
Default                                  : Yes
Forced                                   : No

Text #1
ID                                       : 3
Format                                   : UTF-8
Codec ID                                 : S_TEXT/UTF8
Codec ID/Info                            : UTF-8 Plain Text
Duration                                 : 1 h 33 min
Bit rate                                 : 52 b/s
Count of elements                        : 1091
Stream size                              : 35.8 KiB (0%)
Language                                 : English
Default                                  : Yes
Forced                                   : No

Text #2
ID                                       : 4
Format                                   : PGS
Muxing mode                              : zlib
Codec ID                                 : S_HDMV/PGS
Codec ID/Info                            : Picture based subtitle format used on BDs/HD-DVDs
Duration                                 : 1 h 34 min
Bit rate                                 : 28.8 kb/s
Count of elements                        : 1986
Stream size                              : 19.4 MiB (0%)
Language                                 : Italian
Default                                  : No
Forced                                   : No

Menu
00:00:00.000                             : :Chapter 1
00:08:39.875                             : :Chapter 2
00:18:50.958                             : :Chapter 3
00:24:47.708                             : :Chapter 4
00:33:19.792                             : :Chapter 5
00:41:16.625                             : :Chapter 6
00:50:29.417                             : :Chapter 7
00:58:48.917                             : :Chapter 8
01:03:59.542                             : :Chapter 9
01:12:31.667                             : :Chapter 10
01:21:39.833                             : :Chapter 11
01:29:57.125                             : :Chapter 12
[/url][/url][/url]



                                                                                                                                                                                                        
                                                                                                                                                                                                                                                                                                                                                                                                                                                                                                                                                                                                                                                                                                                                                                                                                                                        
029be8323d6440980ae746b3b8f523e1.zip (42.82 KB, 下载次数: 0)

回复

使用道具 举报

小黑屋|西西论坛

本网站所有资源来自网络,如无意中侵犯了您的权益,请发邮件至 [email protected],立即清除相关链接

GMT+8, 2021-3-2 03:48 , Processed in 0.090477 second(s), 23 queries .

Powered by Discuz! X3.2

© 2001-2013 Comsenz Inc.

快速回复 返回顶部 返回列表