西西论坛

 找回密码
 立即注册
搜索

碧蓝之海/碧蓝之海剧场版 Grand.Blue.2020.JAPANESE.1080p.BluRay.x264...

[复制链接]
电影首发 发表于 2021-1-29 22:41:36 | 显示全部楼层 |阅读模式
-->
帖子完整标题:碧蓝之海/碧蓝之海剧场版 Grand.Blue.2020.JAPANESE.1080p.BluRay.x264-HANDJOB 8.80GB


[/url]

◎译  名 碧蓝之海/碧蓝之海剧场版(台)
◎片  名 ぐらんぶる
◎年  代 2020
◎产  地 日本
◎类  别 剧情 / 喜剧
◎语  言 日语
◎上映日期 2020-07-26(上海电影节) / 2020-08-07(日本)
◎IMDb评分  6.2/10 from 109 users
◎  
◎豆瓣评分 6.7/10 from 3332 users
◎ 
◎片  长 108分钟
◎导  演 英勉 Tsutomu Hanabusa
◎编  剧 英勉 Tsutomu Hanabusa / 宇田学 Manabu Uda
◎主  演 龙星凉 Ryo Ry?sei
       犬饲贵丈 Atsuhiro Inukai
       与田祐希 Yuki Yoda
       朝比奈彩 Aya Asahina
       小仓优香 Yuka Ogura
       石川恋 Ren Ishikawa
       高岛政宏 Masahiro Takashima
       松本海希 Miki Matsumoto
       田中聪元 Sogen Tanaka
       平田雄也 Yūya Hirata
       岩永洋昭 Hiroaki Iwanaga
       铃之助 Suzunosuke
       森永悠希 Yuki Morinaga
       矢本悠马 Yuma Yamoto

◎标  签 喜剧 | 日本 | 日本电影 | 2020 | 龙星凉 | 日影 | 犬饲贵丈 | 斋藤飞鸟

◎简  介

  北原伊织(龙星凉饰)在升上大学后,寄宿在叔父所经营的潜水商店「GRAND BLUE」,并且与相隔十年不见的表姐妹—古手川奈奈华(朝比奈彩饰)和古手川千纱(与田佑希饰)同住一个屋檐下生活。对青春大学新生活充满期待的他,被大学潜水社团「Peek a Boo」盯上,殊不知被社团前辈盯上,连热爱二次元世界的友人今村耕平也一起被扯进来,于是展开了一段结合潜水、裸体、酒精、打闹、妄想、恋爱的荒谬大学生活。
  
  为什么在大学里全裸狂奔?? 因为疯狂的青春只有一次? ?
Video
ID                                       : 1
Format                                   : AVC
Format/Info                              : Advanced Video Codec
Format profile                           :
Format settings                          : CABAC / 4 Ref Frames
Format settings, CABAC                   : Yes
Format settings, Reference frames        : 4 frames
Codec ID                                 : V_MPEG4/ISO/AVC
Duration                                 : 1 h 47 min
Bit rate                                 : 11.1 Mb/s
Width                                    : 1 920 pixels
Height                                   : 1 036 pixels
Display aspect ratio                     : 1.85:1
Frame rate mode                          : Constant
Frame rate                               : 23.976 (24000/1001/189150) FPS
Color space                              : YUV
Chroma subsampling                       : 4:2:0
Bit depth                                : 8 bits
Scan type                                : Progressive
Bits/(Pixel*Frame)                       : 0.232
Stream size                              : 8.31 GiB (94%)
Writing library                          : x264 core 157 r2935 545de2f
Encoding settings                        : cabac=1 / ref=4 / deblock=1:-3:-3 / analyse=0x3:0x133 / me=umh / subme=10 / psy=1 / psy_rd=1.00:0.00 / mixed_ref=1 / me_range=32 / chroma_me=1 / trellis=2 / 8x8dct=1 / cqm=0 / deadzone=21,11 / fast_pskip=0 / chroma_qp_offset=-2 / threads=18 / lookahead_threads=4 / sliced_threads=0 / nr=0 / decimate=0 / interlaced=0 / bluray_compat=0 / constrained_intra=0 / bframes=16 / b_pyramid=2 / b_adapt=2 / b_bias=0 / direct=3 / weightb=1 / open_gop=0 / weightp=2 / keyint=240 / keyint_min=24 / scenecut=40 / intra_refresh=0 / rc_lookahead=60 / rc=crf / mbtree=0 / crf=16.8 / qcomp=0.60 / qpmin=0 / qpmax=69 / qpstep=4 / vbv_maxrate=62500 / vbv_bufsize=78125 / crf_max=0.0 / nal_hrd=none / filler=0 / ip_ratio=1.40 / pb_ratio=1.30 / aq=2:1.00
Default                                  : Yes
Forced                                   : No
Color range                              : Limited
Color primaries                          : BT.709
Transfer characteristics                 : BT.709
Matrix coefficients                      : BT.709

Audio
ID                                       : 2
Format                                   : AC-3
Format/Info                              : Audio Coding 3
Commercial name                          : Dolby Digital
Codec ID                                 : A_AC3
Duration                                 : 1 h 47 min
Bit rate mode                            : Constant
Bit rate                                 : 640 kb/s
Channel(s)                               : 6 channels
Channel layout                           : L R C LFE Ls Rs
Sampling rate                            : 48.0 kHz
Frame rate                               : 31.250 FPS (1536 SPF)
Compression mode                         : Lossy
Stream size                              : 492 MiB (5%)
Language                                 : Japanese
Service kind                             : Complete Main
Default                                  : Yes
Forced                                   : No

Text #1
ID                                       : 3
Format                                   : UTF-8
Codec ID                                 : S_TEXT/UTF8
Codec ID/Info                            : UTF-8 Plain Text
Duration                                 : 1 h 42 min
Bit rate                                 : 36 b/s
Count of elements                        : 1266
Stream size                              : 27.2 KiB (0%)
Language                                 : English
Default                                  : Yes
Forced                                   : No

Text #2
ID                                       : 4
Format                                   : PGS
Muxing mode                              : zlib
Codec ID                                 : S_HDMV/PGS
Codec ID/Info                            : Picture based subtitle format used on BDs/HD-DVDs
Duration                                 : 1 h 46 min
Bit rate                                 : 45.0 kb/s
Count of elements                        : 3404
Stream size                              : 34.4 MiB (0%)
Language                                 : Japanese
Default                                  : No
Forced                                   : No

Menu
00:00:00.000                             : ja:Chapter 01
00:07:27.947                             : ja:Chapter 02
00:11:50.167                             : ja:Chapter 03
00:19:33.172                             : ja:Chapter 04
00:31:25.216                             : ja:Chapter 05
00:41:31.989                             : ja:Chapter 06
00:50:12.134                             : ja:Chapter 07
01:04:36.539                             : ja:Chapter 08
01:16:46.351                             : ja:Chapter 09
01:29:19.020                             : ja:Chapter 10
01:39:29.964                             : ja:Chapter 11
01:43:33.874                             : ja:Chapter 12
01:47:33.989                             : ja:Chapter 13
[/url][/url][/url]



                                                                                                                                                                                                        
                                                                                                                                                                                                                                                                                                                                                                                                                                                                                                                                                                                                                                                                                                                                                                                                                                                        
596b33ed96506da03dbbb28a4c86cf71.zip (44.67 KB, 下载次数: 0)

回复

使用道具 举报

小黑屋|西西论坛

本网站所有资源来自网络,如无意中侵犯了您的权益,请发邮件至 [email protected],立即清除相关链接

GMT+8, 2021-3-2 03:38 , Processed in 0.102914 second(s), 23 queries .

Powered by Discuz! X3.2

© 2001-2013 Comsenz Inc.

快速回复 返回顶部 返回列表