西西论坛

 找回密码
 立即注册
搜索

[BD-4K] 美国之子/美国儿子 American.Son.2019.2160p.NF.WEB-DL.x265.10bit.SDR.DD...

[复制链接]
电影首发 发表于 2021-1-27 19:52:48 | 显示全部楼层 |阅读模式
-->
帖子完整标题:美国之子/美国儿子 American.Son.2019.2160p.NF.WEB-DL.x265.10bit.SDR.DDP5.1-SWTYBLZ 7.89GB




◎译  名 美国之子/美国儿子/美国式儿子/美国男孩(港)
◎片  名 American Son
◎年  代 2019
◎产  地 美国
◎类  别 剧情
◎语  言 英语
◎上映日期 2019-09-12(多伦多电影节) / 2019-11-01(美国)
◎IMDb评分  5.7/10 from 6217 users
◎  
◎豆瓣评分 6.3/10 from 289 users
◎ 
◎导  演 肯尼·列昂 Kenny Leon
◎主  演 凯丽·华盛顿 Kerry Washington
       杰瑞米·乔丹 Jeremy Jordan
       史蒂文·帕斯奎尔 Steven Pasquale
       李侑珍 Eugene Lee

◎标  签 剧情 | 2019 | 美国 | 犯罪 | 悬疑 | Netflix | 美国电影 | 改编

◎简  介

  改编自备受好评的百老汇舞台剧,讲述了肯德拉·埃利斯-康纳(荣获艾美奖提名的凯丽·华盛顿饰)的故事,她是一名失踪少年的母亲,在南佛罗里达州的警察局里,她正在向警方努力讲述零散的记忆。史蒂文·帕斯奎尔、杰瑞米·乔登和李侑珍也在这部改编剧集再次出演自己的角色。本剧向观众展示了四种不同的观点,也展现了一对跨种族的夫妇抚养混血儿子的独特历程。

◎获奖情况

  第72届黄金时段艾美奖 ?(2020)
  迷你剧/电视电影最佳电视电影(提名)
  
  第31届美国制片人工会奖 ?(2020)
  最佳流媒体电影/电视电影制片人奖(提名)
Video
ID                                       : 1
Format                                   : HEVC
Format/Info                              : High Efficiency Video Coding
Format profile                           : Main @Main
Codec ID                                 : V_MPEGH/ISO/HEVC
Duration                                 : 1 h 30 min
Bit rate                                 : 11.9 Mb/s
Width                                    : 3 840 pixels
Height                                   : 2 160 pixels
Display aspect ratio                     : 16:9
Frame rate mode                          : Constant
Frame rate                               : 23.976 (24000/1001/189150) FPS
Color space                              : YUV
Chroma subsampling                       : 4:2:0
Bit depth                                : 10 bits
Bits/(Pixel*Frame)                       : 0.060
Stream size                              : 7.48 GiB (95%)
Default                                  : Yes
Forced                                   : No
Color range                              : Limited
Color primaries                          : BT.709
Transfer characteristics                 : BT.709
Matrix coefficients                      : BT.709

Audio
ID                                       : 2
Format                                   : E-AC-3
Format/Info                              : Enhanced AC-3
Commercial name                          : Dolby Digital Plus
Codec ID                                 : A_EAC3
Duration                                 : 1 h 30 min
Bit rate mode                            : Constant
Bit rate                                 : 640 kb/s
Channel(s)                               : 6 channels
Channel layout                           : L R C LFE Ls Rs
Sampling rate                            : 48.0 kHz
Frame rate                               : 31.250 FPS (1536 SPF)
Compression mode                         : Lossy
Stream size                              : 413 MiB (5%)
Title                                    : DDP 5.1
Language                                 : English
Service kind                             : Complete Main
Default                                  : Yes
Forced                                   : No

Text #1
ID                                       : 3
Format                                   : UTF-8
Codec ID                                 : S_TEXT/UTF8
Codec ID/Info                            : UTF-8 Plain Text
Duration                                 : 1 h 29 min
Bit rate                                 : 100 b/s
Count of elements                        : 1865
Stream size                              : 65.8 KiB (0%)
Language                                 : English
Default                                  : Yes
Forced                                   : No

Text #2
ID                                       : 4
Format                                   : UTF-8
Codec ID                                 : S_TEXT/UTF8
Codec ID/Info                            : UTF-8 Plain Text
Duration                                 : 1 h 26 min
Bit rate                                 : 73 b/s
Count of elements                        : 1452
Stream size                              : 46.9 KiB (0%)
Language                                 : Danish
Default                                  : No
Forced                                   : No

Text #3
ID                                       : 5
Format                                   : UTF-8
Codec ID                                 : S_TEXT/UTF8
Codec ID/Info                            : UTF-8 Plain Text
Duration                                 : 1 h 26 min
Bit rate                                 : 80 b/s
Count of elements                        : 1509
Stream size                              : 51.0 KiB (0%)
Language                                 : German
Default                                  : No
Forced                                   : No

Text #4
ID                                       : 6
Format                                   : UTF-8
Codec ID                                 : S_TEXT/UTF8
Codec ID/Info                            : UTF-8 Plain Text
Duration                                 : 1 h 26 min
Bit rate                                 : 148 b/s
Count of elements                        : 1644
Stream size                              : 93.9 KiB (0%)
Language                                 : Arabic
Default                                  : No
Forced                                   : No

Text #5
ID                                       : 7
Format                                   : UTF-8
Codec ID                                 : S_TEXT/UTF8
Codec ID/Info                            : UTF-8 Plain Text
Duration                                 : 1 h 26 min
Bit rate                                 : 85 b/s
Count of elements                        : 1574
Stream size                              : 53.9 KiB (0%)
Language                                 : Czech
Default                                  : No
Forced                                   : No

Text #6
ID                                       : 8
Format                                   : UTF-8
Codec ID                                 : S_TEXT/UTF8
Codec ID/Info                            : UTF-8 Plain Text
Duration                                 : 1 h 26 min
Bit rate                                 : 140 b/s
Count of elements                        : 1569
Stream size                              : 89.1 KiB (0%)
Language                                 : Greek
Default                                  : No
Forced                                   : No

Text #7
ID                                       : 9
Format                                   : UTF-8
Codec ID                                 : S_TEXT/UTF8
Codec ID/Info                            : UTF-8 Plain Text
Duration                                 : 1 h 29 min
Bit rate                                 : 78 b/s
Count of elements                        : 1491
Stream size                              : 51.2 KiB (0%)
Language                                 : Spanish
Default                                  : No
Forced                                   : No

Text #8
ID                                       : 10
Format                                   : UTF-8
Codec ID                                 : S_TEXT/UTF8
Codec ID/Info                            : UTF-8 Plain Text
Duration                                 : 1 h 26 min
Bit rate                                 : 70 b/s
Count of elements                        : 1474
Stream size                              : 44.6 KiB (0%)
Language                                 : Finnish
Default                                  : No
Forced                                   : No

Text #9
ID                                       : 11
Format                                   : UTF-8
Codec ID                                 : S_TEXT/UTF8
Codec ID/Info                            : UTF-8 Plain Text
Duration                                 : 1 h 26 min
Bit rate                                 : 86 b/s
Count of elements                        : 1635
Stream size                              : 54.7 KiB (0%)
Language                                 : French
Default                                  : No
Forced                                   : No

Text #10
ID                                       : 12
Format                                   : UTF-8
Codec ID                                 : S_TEXT/UTF8
Codec ID/Info                            : UTF-8 Plain Text
Duration                                 : 1 h 29 min
Bit rate                                 : 133 b/s
Count of elements                        : 1597
Stream size                              : 87.8 KiB (0%)
Language                                 : Hebrew
Default                                  : No
Forced                                   : No

Text #11
ID                                       : 13
Format                                   : UTF-8
Codec ID                                 : S_TEXT/UTF8
Codec ID/Info                            : UTF-8 Plain Text
Duration                                 : 1 h 26 min
Bit rate                                 : 78 b/s
Count of elements                        : 1605
Stream size                              : 49.5 KiB (0%)
Language                                 : Hungarian
Default                                  : No
Forced                                   : No

Text #12
ID                                       : 14
Format                                   : UTF-8
Codec ID                                 : S_TEXT/UTF8
Codec ID/Info                            : UTF-8 Plain Text
Duration                                 : 1 h 26 min
Bit rate                                 : 79 b/s
Count of elements                        : 1697
Stream size                              : 50.6 KiB (0%)
Language                                 : Indonesian
Default                                  : No
Forced                                   : No

Text #13
ID                                       : 15
Format                                   : UTF-8
Codec ID                                 : S_TEXT/UTF8
Codec ID/Info                            : UTF-8 Plain Text
Duration                                 : 1 h 26 min
Bit rate                                 : 77 b/s
Count of elements                        : 1476
Stream size                              : 48.9 KiB (0%)
Language                                 : Italian
Default                                  : No
Forced                                   : No

Text #14
ID                                       : 16
Format                                   : UTF-8
Codec ID                                 : S_TEXT/UTF8
Codec ID/Info                            : UTF-8 Plain Text
Duration                                 : 1 h 26 min
Bit rate                                 : 82 b/s
Count of elements                        : 1503
Stream size                              : 52.5 KiB (0%)
Language                                 : Spanish
Default                                  : No
Forced                                   : No

Text #15
ID                                       : 17
Format                                   : UTF-8
Codec ID                                 : S_TEXT/UTF8
Codec ID/Info                            : UTF-8 Plain Text
Duration                                 : 1 h 26 min
Bit rate                                 : 79 b/s
Count of elements                        : 1589
Stream size                              : 50.1 KiB (0%)
Language                                 : Japanese
Default                                  : No
Forced                                   : No

Text #16
ID                                       : 18
Format                                   : UTF-8
Codec ID                                 : S_TEXT/UTF8
Codec ID/Info                            : UTF-8 Plain Text
Duration                                 : 1 h 26 min
Bit rate                                 : 115 b/s
Count of elements                        : 1739
Stream size                              : 73.3 KiB (0%)
Language                                 : Korean
Default                                  : No
Forced                                   : No

Text #17
ID                                       : 19
Format                                   : UTF-8
Codec ID                                 : S_TEXT/UTF8
Codec ID/Info                            : UTF-8 Plain Text
Duration                                 : 1 h 26 min
Bit rate                                 : 75 b/s
Count of elements                        : 1675
Stream size                              : 48.1 KiB (0%)
Language                                 : Polish
Default                                  : No
Forced                                   : No

Text #18
ID                                       : 20
Format                                   : UTF-8
Codec ID                                 : S_TEXT/UTF8
Codec ID/Info                            : UTF-8 Plain Text
Duration                                 : 1 h 28 min
Bit rate                                 : 79 b/s
Count of elements                        : 1541
Stream size                              : 51.5 KiB (0%)
Title                                    : Brasil
Language                                 : Portuguese
Default                                  : No
Forced                                   : No

Text #19
ID                                       : 21
Format                                   : UTF-8
Codec ID                                 : S_TEXT/UTF8
Codec ID/Info                            : UTF-8 Plain Text
Duration                                 : 1 h 26 min
Bit rate                                 : 89 b/s
Count of elements                        : 1707
Stream size                              : 56.4 KiB (0%)
Title                                    : Simplified
Language                                 : Chinese
Default                                  : No
Forced                                   : No

Text #20
ID                                       : 22
Format                                   : UTF-8
Codec ID                                 : S_TEXT/UTF8
Codec ID/Info                            : UTF-8 Plain Text
Duration                                 : 1 h 26 min
Bit rate                                 : 86 b/s
Count of elements                        : 1708
Stream size                              : 54.6 KiB (0%)
Title                                    : Traditional
Language                                 : Chinese
Default                                  : No
Forced                                   : No

Text #21
ID                                       : 23
Format                                   : UTF-8
Codec ID                                 : S_TEXT/UTF8
Codec ID/Info                            : UTF-8 Plain Text
Duration                                 : 1 h 26 min
Bit rate                                 : 83 b/s
Count of elements                        : 1683
Stream size                              : 52.8 KiB (0%)
Language                                 : Portuguese
Default                                  : No
Forced                                   : No

Text #22
ID                                       : 24
Format                                   : UTF-8
Codec ID                                 : S_TEXT/UTF8
Codec ID/Info                            : UTF-8 Plain Text
Duration                                 : 1 h 26 min
Bit rate                                 : 80 b/s
Count of elements                        : 1168
Stream size                              : 50.9 KiB (0%)
Language                                 : Norwegian Bokmal
Default                                  : No
Forced                                   : No

Text #23
ID                                       : 25
Format                                   : UTF-8
Codec ID                                 : S_TEXT/UTF8
Codec ID/Info                            : UTF-8 Plain Text
Duration                                 : 1 h 29 min
Bit rate                                 : 70 b/s
Count of elements                        : 1332
Stream size                              : 46.1 KiB (0%)
Language                                 : Dutch
Default                                  : No
Forced                                   : No

Text #24
ID                                       : 26
Format                                   : UTF-8
Codec ID                                 : S_TEXT/UTF8
Codec ID/Info                            : UTF-8 Plain Text
Duration                                 : 1 h 26 min
Bit rate                                 : 132 b/s
Count of elements                        : 1702
Stream size                              : 83.9 KiB (0%)
Language                                 : Russian
Default                                  : No
Forced                                   : No

Text #25
ID                                       : 27
Format                                   : UTF-8
Codec ID                                 : S_TEXT/UTF8
Codec ID/Info                            : UTF-8 Plain Text
Duration                                 : 1 h 26 min
Bit rate                                 : 73 b/s
Count of elements                        : 1151
Stream size                              : 46.7 KiB (0%)
Language                                 : Swedish
Default                                  : No
Forced                                   : No

Text #26
ID                                       : 28
Format                                   : UTF-8
Codec ID                                 : S_TEXT/UTF8
Codec ID/Info                            : UTF-8 Plain Text
Duration                                 : 1 h 26 min
Bit rate                                 : 85 b/s
Count of elements                        : 1578
Stream size                              : 54.4 KiB (0%)
Language                                 : Romanian
Default                                  : No
Forced                                   : No

Text #27
ID                                       : 29
Format                                   : UTF-8
Codec ID                                 : S_TEXT/UTF8
Codec ID/Info                            : UTF-8 Plain Text
Duration                                 : 1 h 26 min
Bit rate                                 : 82 b/s
Count of elements                        : 1364
Stream size                              : 52.0 KiB (0%)
Language                                 : Turkish
Default                                  : No
Forced                                   : No

Text #28
ID                                       : 30
Format                                   : UTF-8
Codec ID                                 : S_TEXT/UTF8
Codec ID/Info                            : UTF-8 Plain Text
Duration                                 : 1 h 26 min
Bit rate                                 : 107 b/s
Count of elements                        : 1684
Stream size                              : 68.3 KiB (0%)
Language                                 : Vietnamese
Default                                  : No
Forced                                   : No

Text #29
ID                                       : 31
Format                                   : UTF-8
Codec ID                                 : S_TEXT/UTF8
Codec ID/Info                            : UTF-8 Plain Text
Duration                                 : 1 h 26 min
Bit rate                                 : 229 b/s
Count of elements                        : 1729
Stream size                              : 145 KiB (0%)
Language                                 : Thai
Default                                  : No
Forced                                   : No




                                                                                                                                                                                                        
                                                                                                                                                                                                                                                                                                                                                                             &nb

回复

使用道具 举报

小黑屋|西西论坛

本网站所有资源来自网络,如无意中侵犯了您的权益,请发邮件至 [email protected],立即清除相关链接

GMT+8, 2021-2-26 03:22 , Processed in 0.109719 second(s), 20 queries .

Powered by Discuz! X3.2

© 2001-2013 Comsenz Inc.

快速回复 返回顶部 返回列表