西西论坛

 找回密码
 立即注册
搜索

[BD-4K] 费洛 Ferro.2020.ITALIAN.2160p.AMZN.WEB-DL.x265.10bit.HDR10plus.DDP5.1-SWTYB...

[复制链接]
电影首发 发表于 2021-1-27 19:52:48 | 显示全部楼层 |阅读模式
-->
帖子完整标题:费洛 Ferro.2020.ITALIAN.2160p.AMZN.WEB-DL.x265.10bit.HDR10plus.DDP5.1-SWTYBLZ 8.26GB




◎译  名 费洛
◎片  名 Ferro
◎年  代 2020
◎产  地 意大利
◎类  别 纪录片
◎语  言 意大利语
◎上映日期 2020-11-08(意大利)
◎IMDb评分  6.4/10 from 219 users
◎  
◎豆瓣评分 /10 from 0 users
◎ 
◎片  长 77分钟
◎主  演 Tiziano Ferro
       Fabio Fazio
       比安卡·巴尔蒂 Bianca Balti
       布里吉特·尼尔森 Brigitte Nielsen
       Amadeus
       马西莫·拉涅里 Massimo Ranieri

◎标  签 [歐美]

◎简  介

  Ferro is the original and open hearted story of one of the most famous Italian singers in the world.
Video
ID                                       : 1
Format                                   : HEVC
Format/Info                              : High Efficiency Video Coding
Format profile                           : Main @Main
HDR format                               : SMPTE ST 2094 App 4, Version 1, HDR10+ Profile B compatible
Codec ID                                 : V_MPEGH/ISO/HEVC
Duration                                 : 1 h 16 min
Bit rate                                 : 14.8 Mb/s
Width                                    : 3 840 pixels
Height                                   : 2 160 pixels
Display aspect ratio                     : 16:9
Frame rate mode                          : Constant
Frame rate                               : 24.000 FPS
Color space                              : YUV
Chroma subsampling                       : 4:2:0
Bit depth                                : 10 bits
Bits/(Pixel*Frame)                       : 0.074
Stream size                              : 7.91 GiB (96%)
Default                                  : Yes
Forced                                   : No
Color range                              : Limited
Color primaries                          : BT.2020
Transfer characteristics                 : PQ
Matrix coefficients                      : BT.2020 non-constant
Mastering display color primaries        : Display P3
Mastering display luminance              : min: 0.0001 cd/m2, max: 1000 cd/m2
Maximum Content Light Level              : 901 cd/m2
Maximum Frame-Average Light Level        : 326 cd/m2

Audio
ID                                       : 2
Format                                   : E-AC-3
Format/Info                              : Enhanced AC-3
Commercial name                          : Dolby Digital Plus
Codec ID                                 : A_EAC3
Duration                                 : 1 h 16 min
Bit rate mode                            : Constant
Bit rate                                 : 640 kb/s
Channel(s)                               : 6 channels
Channel layout                           : L R C LFE Ls Rs
Sampling rate                            : 48.0 kHz
Frame rate                               : 31.250 FPS (1536 SPF)
Compression mode                         : Lossy
Stream size                              : 352 MiB (4%)
Title                                    : DDP 5.1
Language                                 : Italian
Service kind                             : Complete Main
Default                                  : Yes
Forced                                   : No

Text #1
ID                                       : 3
Format                                   : UTF-8
Codec ID                                 : S_TEXT/UTF8
Codec ID/Info                            : UTF-8 Plain Text
Duration                                 : 1 h 14 min
Bit rate                                 : 61 b/s
Count of elements                        : 805
Stream size                              : 33.4 KiB (0%)
Language                                 : English
Default                                  : Yes
Forced                                   : No

Text #2
ID                                       : 4
Format                                   : UTF-8
Codec ID                                 : S_TEXT/UTF8
Codec ID/Info                            : UTF-8 Plain Text
Duration                                 : 1 h 16 min
Bit rate                                 : 69 b/s
Count of elements                        : 869
Stream size                              : 38.8 KiB (0%)
Language                                 : German
Default                                  : No
Forced                                   : No

Text #3
ID                                       : 5
Format                                   : UTF-8
Codec ID                                 : S_TEXT/UTF8
Codec ID/Info                            : UTF-8 Plain Text
Duration                                 : 1 h 16 min
Bit rate                                 : 77 b/s
Count of elements                        : 1101
Stream size                              : 43.5 KiB (0%)
Language                                 : Spanish
Default                                  : No
Forced                                   : No

Text #4
ID                                       : 6
Format                                   : UTF-8
Codec ID                                 : S_TEXT/UTF8
Codec ID/Info                            : UTF-8 Plain Text
Duration                                 : 1 h 16 min
Bit rate                                 : 82 b/s
Count of elements                        : 1094
Stream size                              : 45.8 KiB (0%)
Language                                 : French
Default                                  : No
Forced                                   : No

Text #5
ID                                       : 7
Format                                   : UTF-8
Codec ID                                 : S_TEXT/UTF8
Codec ID/Info                            : UTF-8 Plain Text
Duration                                 : 1 h 15 min
Bit rate                                 : 89 b/s
Count of elements                        : 1216
Stream size                              : 49.6 KiB (0%)
Language                                 : Italian
Default                                  : No
Forced                                   : No

Menu
00:00:00.000                             : en:Amazon Original
00:00:05.000                             : en:Scene 2
00:01:54.000                             : en:Scene 3
00:02:27.000                             : en:Title Sequence
00:02:50.000                             : en:Scene 5
00:05:47.000                             : en:Scene 6
00:06:13.000                             : en:Scene 7
00:07:54.000                             : en:Scene 8
00:09:07.000                             : en:Scene 9
00:10:40.000                             : en:Scene 10
00:11:29.000                             : en:Scene 11
00:12:45.000                             : en:Scene 12
00:16:17.000                             : en:Scene 13
00:18:51.000                             : en:Scene 14
00:23:40.000                             : en:Scene 15
00:24:50.000                             : en:Scene 16
00:28:43.000                             : en:Scene 17
00:30:21.000                             : en:Scene 18
00:32:13.000                             : en:Scene 19
00:34:12.000                             : en:Scene 20
00:36:15.000                             : en:Scene 21
00:43:27.000                             : en:Scene 22
00:44:53.000                             : en:Scene 23
00:48:58.000                             : en:Scene 24
00:50:07.000                             : en:Scene 25
00:53:09.000                             : en:Scene 26
00:56:29.000                             : en:Scene 27
00:58:27.000                             : en:Scene 28
01:00:28.000                             : en:Scene 29
01:03:55.000                             : en:Scene 30
01:13:16.000                             : en:Scene 31
01:15:31.000                             : en:End Credits




                                                                                                                                                                                                        
                                                                                                                                                                                                                                                                                                                                                                                                                                                                                                                                                                                                                                                                                                                                                                                                                                                        
492094b456cdcbf5722447fdbb369985.zip (42.02 KB, 下载次数: 0)

回复

使用道具 举报

小黑屋|西西论坛

本网站所有资源来自网络,如无意中侵犯了您的权益,请发邮件至 [email protected],立即清除相关链接

GMT+8, 2021-3-2 00:16 , Processed in 0.095010 second(s), 23 queries .

Powered by Discuz! X3.2

© 2001-2013 Comsenz Inc.

快速回复 返回顶部 返回列表